  0
SECTION
  2
HEADER
  9
$ACADVER
  1
AC1024
  9
$ACADMAINTVER
 70
   108
  9
$DWGCODEPAGE
  3
ANSI_1252
  9
$AUTHOR
  1
Peter Kaiser
  9
$CUSTOMPROPERTYTAG
  1
Manager
  9
$CUSTOMPROPERTY
  1

  9
$CUSTOMPROPERTYTAG
  1
Firma
  9
$CUSTOMPROPERTY
  1

  9
$CUSTOMPROPERTYTAG
  1
Kategorie
  9
$CUSTOMPROPERTY
  1

  9
$CUSTOMPROPERTYTAG
  1
Bauteilnummer
  9
$CUSTOMPROPERTY
  1
angea25b
  9
$CUSTOMPROPERTYTAG
  1
Bezeichnung
  9
$CUSTOMPROPERTY
  1

  9
$CUSTOMPROPERTYTAG
  1
Projekt
  9
$CUSTOMPROPERTY
  1

  9
$CUSTOMPROPERTYTAG
  1
Konstrukteur
  9
$CUSTOMPROPERTY
  1
Peter Kaiser
  9
$CUSTOMPROPERTYTAG
  1
Ingenieur
  9
$CUSTOMPROPERTY
  1

  9
$CUSTOMPROPERTYTAG
  1
Bevollmächtigter
  9
$CUSTOMPROPERTY
  1

  9
$CUSTOMPROPERTYTAG
  1
Kostenstelle
  9
$CUSTOMPROPERTY
  1

  9
$CUSTOMPROPERTYTAG
  1
Zulieferer
  9
$CUSTOMPROPERTY
  1

  9
$CUSTOMPROPERTYTAG
  1
Benutzerstatus
  9
$CUSTOMPROPERTY
  1

  9
$CUSTOMPROPERTYTAG
  1
Konstruktionsstatus
  9
$CUSTOMPROPERTY
  1
InBearbeitung
  9
$CUSTOMPROPERTYTAG
  1
Kontrolliert von
  9
$CUSTOMPROPERTY
  1

  9
$CUSTOMPROPERTYTAG
  1
Konstruktion genehmigt von
  9
$CUSTOMPROPERTY
  1

  9
$CUSTOMPROPERTYTAG
  1
Fertigung genehmigt von
  9
$CUSTOMPROPERTY
  1

  9
$INSBASE
 10
0.0
 20
0.0
 30
0.0
  9
$EXTMIN
 10
0.0
 20
0.0
 30
0.0
  9
$EXTMAX
 10
105.0
 20
148.5
 30
0.0
  9
$LIMMIN
 10
0.0
 20
0.0
  9
$LIMMAX
 10
105.0
 20
148.5
  9
$ORTHOMODE
 70
     0
  9
$REGENMODE
 70
     1
  9
$FILLMODE
 70
     1
  9
$QTEXTMODE
 70
     0
  9
$MIRRTEXT
 70
     0
  9
$LTSCALE
 40
0.5
  9
$ATTMODE
 70
     1
  9
$TEXTSIZE
 40
0.2
  9
$TRACEWID
 40
0.05
  9
$TEXTSTYLE
  7
Standard
  9
$CLAYER
  8
0
  9
$CELTYPE
  6
ByLayer
  9
$CECOLOR
 62
   256
  9
$CELTSCALE
 40
1.0
  9
$DISPSILH
 70
     0
  9
$DIMSCALE
 40
1.0
  9
$DIMASZ
 40
1.799999999999999
  9
$DIMEXO
 40
0.0625
  9
$DIMDLI
 40
0.38
  9
$DIMRND
 40
0.0
  9
$DIMDLE
 40
0.0
  9
$DIMEXE
 40
0.18
  9
$DIMTP
 40
0.0
  9
$DIMTM
 40
0.0
  9
$DIMTXT
 40
0.25
  9
$DIMCEN
 40
0.09
  9
$DIMTSZ
 40
0.0
  9
$DIMTOL
 70
     0
  9
$DIMLIM
 70
     0
  9
$DIMTIH
 70
     1
  9
$DIMTOH
 70
     1
  9
$DIMSE1
 70
     0
  9
$DIMSE2
 70
     0
  9
$DIMTAD
 70
     0
  9
$DIMZIN
 70
     0
  9
$DIMBLK
  1

  9
$DIMASO
 70
     1
  9
$DIMSHO
 70
     1
  9
$DIMPOST
  1

  9
$DIMAPOST
  1

  9
$DIMALT
 70
     0
  9
$DIMALTD
 70
     2
  9
$DIMALTF
 40
25.4
  9
$DIMLFAC
 40
1.0
  9
$DIMTOFL
 70
     0
  9
$DIMTVP
 40
0.0
  9
$DIMTIX
 70
     0
  9
$DIMSOXD
 70
     0
  9
$DIMSAH
 70
     0
  9
$DIMBLK1
  1

  9
$DIMBLK2
  1

  9
$DIMSTYLE
  2
Standard
  9
$DIMCLRD
 70
     0
  9
$DIMCLRE
 70
     0
  9
$DIMCLRT
 70
     0
  9
$DIMTFAC
 40
1.0
  9
$DIMGAP
 40
0.09
  9
$DIMJUST
 70
     0
  9
$DIMSD1
 70
     0
  9
$DIMSD2
 70
     0
  9
$DIMTOLJ
 70
     1
  9
$DIMTZIN
 70
     0
  9
$DIMALTZ
 70
     0
  9
$DIMALTTZ
 70
     0
  9
$DIMUPT
 70
     0
  9
$DIMDEC
 70
     4
  9
$DIMTDEC
 70
     4
  9
$DIMALTU
 70
     2
  9
$DIMALTTD
 70
     2
  9
$DIMTXSTY
  7
Standard
  9
$DIMAUNIT
 70
     0
  9
$DIMADEC
 70
     0
  9
$DIMALTRND
 40
0.0
  9
$DIMAZIN
 70
     0
  9
$DIMDSEP
 70
    46
  9
$DIMATFIT
 70
     3
  9
$DIMFRAC
 70
     0
  9
$DIMLDRBLK
  1

  9
$DIMLUNIT
 70
     2
  9
$DIMLWD
 70
    -2
  9
$DIMLWE
 70
    -2
  9
$DIMTMOVE
 70
     0
  9
$DIMFXL
 40
1.0
  9
$DIMFXLON
 70
     0
  9
$DIMJOGANG
 40
0.7853981633974483
  9
$DIMTFILL
 70
     0
  9
$DIMTFILLCLR
 70
     0
  9
$DIMARCSYM
 70
     0
  9
$DIMLTYPE
  6

  9
$DIMLTEX1
  6

  9
$DIMLTEX2
  6

  9
$DIMTXTDIRECTION
 70
     0
  9
$LUNITS
 70
     2
  9
$LUPREC
 70
     4
  9
$SKETCHINC
 40
0.1
  9
$FILLETRAD
 40
0.0
  9
$AUNITS
 70
     0
  9
$AUPREC
 70
     0
  9
$MENU
  1
.
  9
$ELEVATION
 40
0.0
  9
$PELEVATION
 40
0.0
  9
$THICKNESS
 40
0.0
  9
$LIMCHECK
 70
     0
  9
$CHAMFERA
 40
0.0
  9
$CHAMFERB
 40
0.0
  9
$CHAMFERC
 40
0.0
  9
$CHAMFERD
 40
0.0
  9
$SKPOLY
 70
     0
  9
$TDCREATE
 40
2456624.541252998
  9
$TDUCREATE
 40
2456624.499586331
  9
$TDUPDATE
 40
2456624.541252998
  9
$TDUUPDATE
 40
2456624.499586331
  9
$TDINDWG
 40
0.0000632176
  9
$TDUSRTIMER
 40
0.0000631829
  9
$USRTIMER
 70
     1
  9
$ANGBASE
 50
0.0
  9
$ANGDIR
 70
     0
  9
$PDMODE
 70
     0
  9
$PDSIZE
 40
0.0
  9
$PLINEWID
 40
0.0
  9
$SPLFRAME
 70
     0
  9
$SPLINETYPE
 70
     6
  9
$SPLINESEGS
 70
     8
  9
$HANDSEED
  5
A72
  9
$SURFTAB1
 70
     6
  9
$SURFTAB2
 70
     6
  9
$SURFTYPE
 70
     6
  9
$SURFU
 70
     6
  9
$SURFV
 70
     6
  9
$UCSBASE
  2

  9
$UCSNAME
  2

  9
$UCSORG
 10
0.0
 20
0.0
 30
0.0
  9
$UCSXDIR
 10
1.0
 20
0.0
 30
0.0
  9
$UCSYDIR
 10
0.0
 20
1.0
 30
0.0
  9
$UCSORTHOREF
  2

  9
$UCSORTHOVIEW
 70
     0
  9
$UCSORGTOP
 10
0.0
 20
0.0
 30
0.0
  9
$UCSORGBOTTOM
 10
0.0
 20
0.0
 30
0.0
  9
$UCSORGLEFT
 10
0.0
 20
0.0
 30
0.0
  9
$UCSORGRIGHT
 10
0.0
 20
0.0
 30
0.0
  9
$UCSORGFRONT
 10
0.0
 20
0.0
 30
0.0
  9
$UCSORGBACK
 10
0.0
 20
0.0
 30
0.0
  9
$PUCSBASE
  2

  9
$PUCSNAME
  2

  9
$PUCSORG
 10
0.0
 20
0.0
 30
0.0
  9
$PUCSXDIR
 10
1.0
 20
0.0
 30
0.0
  9
$PUCSYDIR
 10
0.0
 20
1.0
 30
0.0
  9
$PUCSORTHOREF
  2

  9
$PUCSORTHOVIEW
 70
     0
  9
$PUCSORGTOP
 10
0.0
 20
0.0
 30
0.0
  9
$PUCSORGBOTTOM
 10
0.0
 20
0.0
 30
0.0
  9
$PUCSORGLEFT
 10
0.0
 20
0.0
 30
0.0
  9
$PUCSORGRIGHT
 10
0.0
 20
0.0
 30
0.0
  9
$PUCSORGFRONT
 10
0.0
 20
0.0
 30
0.0
  9
$PUCSORGBACK
 10
0.0
 20
0.0
 30
0.0
  9
$USERI1
 70
     0
  9
$USERI2
 70
     0
  9
$USERI3
 70
     0
  9
$USERI4
 70
     0
  9
$USERI5
 70
     0
  9
$USERR1
 40
0.0
  9
$USERR2
 40
0.0
  9
$USERR3
 40
0.0
  9
$USERR4
 40
0.0
  9
$USERR5
 40
0.0
  9
$WORLDVIEW
 70
     1
  9
$SHADEDGE
 70
     3
  9
$SHADEDIF
 70
    70
  9
$TILEMODE
 70
     1
  9
$MAXACTVP
 70
    64
  9
$PINSBASE
 10
0.0
 20
0.0
 30
0.0
  9
$PLIMCHECK
 70
     0
  9
$PEXTMIN
 10
0.0
 20
0.0
 30
0.0
  9
$PEXTMAX
 10
105.0
 20
148.5
 30
0.0
  9
$PLIMMIN
 10
0.0
 20
0.0
  9
$PLIMMAX
 10
105.0
 20
148.5
  9
$UNITMODE
 70
     0
  9
$VISRETAIN
 70
     1
  9
$PLINEGEN
 70
     0
  9
$PSLTSCALE
 70
     1
  9
$TREEDEPTH
 70
  3020
  9
$CMLSTYLE
  2
Standard
  9
$CMLJUST
 70
     0
  9
$CMLSCALE
 40
1.0
  9
$PROXYGRAPHICS
 70
     1
  9
$MEASUREMENT
 70
     1
  9
$CELWEIGHT
370
    -1
  9
$ENDCAPS
280
     0
  9
$JOINSTYLE
280
     0
  9
$LWDISPLAY
290
     0
  9
$INSUNITS
 70
     4
  9
$HYPERLINKBASE
  1

  9
$STYLESHEET
  1

  9
$XEDIT
290
     1
  9
$CEPSNTYPE
380
     0
  9
$PSTYLEMODE
290
     1
  9
$FINGERPRINTGUID
  2
{FCC15D1F-8DB9-479D-9316-F52FD766458B}
  9
$VERSIONGUID
  2
{9D03C4D6-5AE5-4A18-BCF4-6C7A126BE29A}
  9
$EXTNAMES
290
     1
  9
$PSVPSCALE
 40
0.0
  9
$OLESTARTUP
290
     0
  9
$SORTENTS
280
   127
  9
$INDEXCTL
280
     0
  9
$HIDETEXT
280
     1
  9
$XCLIPFRAME
280
     2
  9
$HALOGAP
280
     0
  9
$OBSCOLOR
 70
   257
  9
$OBSLTYPE
280
     0
  9
$INTERSECTIONDISPLAY
280
     0
  9
$INTERSECTIONCOLOR
 70
   257
  9
$DIMASSOC
280
     1
  9
$PROJECTNAME
  1

  9
$CAMERADISPLAY
290
     0
  9
$LENSLENGTH
 40
50.0
  9
$CAMERAHEIGHT
 40
0.0
  9
$STEPSPERSEC
 40
2.0
  9
$STEPSIZE
 40
6.0
  9
$3DDWFPREC
 40
2.0
  9
$PSOLWIDTH
 40
0.25
  9
$PSOLHEIGHT
 40
4.0
  9
$LOFTANG1
 40
1.570796326794896
  9
$LOFTANG2
 40
1.570796326794896
  9
$LOFTMAG1
 40
0.0
  9
$LOFTMAG2
 40
0.0
  9
$LOFTPARAM
 70
     7
  9
$LOFTNORMALS
280
     1
  9
$LATITUDE
 40
37.795
  9
$LONGITUDE
 40
-122.394
  9
$NORTHDIRECTION
 40
0.0
  9
$TIMEZONE
 70
 -8000
  9
$LIGHTGLYPHDISPLAY
280
     1
  9
$TILEMODELIGHTSYNCH
280
     1
  9
$CMATERIAL
347
11
  9
$SOLIDHIST
280
     0
  9
$SHOWHIST
280
     1
  9
$DWFFRAME
280
     2
  9
$DGNFRAME
280
     0
  9
$REALWORLDSCALE
290
     1
  9
$INTERFERECOLOR
 62
     1
  9
$INTERFEREOBJVS
345
33
  9
$INTERFEREVPVS
346
30
  9
$CSHADOW
280
     0
  9
$SHADOWPLANELOCATION
 40
0.0
  0
ENDSEC
  0
SECTION
  2
CLASSES
  0
CLASS
  1
ACDBDICTIONARYWDFLT
  2
AcDbDictionaryWithDefault
  3
ObjectDBX Classes
 90
        0
 91
        1
280
     0
281
     0
  0
CLASS
  1
MATERIAL
  2
AcDbMaterial
  3
ObjectDBX Classes
 90
     1153
 91
        3
280
     0
281
     0
  0
CLASS
  1
VISUALSTYLE
  2
AcDbVisualStyle
  3
ObjectDBX Classes
 90
     4095
 91
       24
280
     0
281
     0
  0
CLASS
  1
SCALE
  2
AcDbScale
  3
ObjectDBX Classes
 90
     1153
 91
       17
280
     0
281
     0
  0
CLASS
  1
TABLESTYLE
  2
AcDbTableStyle
  3
ObjectDBX Classes
 90
     4095
 91
        1
280
     0
281
     0
  0
CLASS
  1
MLEADERSTYLE
  2
AcDbMLeaderStyle
  3
ACDB_MLEADERSTYLE_CLASS
 90
     4095
 91
        1
280
     0
281
     0
  0
CLASS
  1
ACDBSECTIONVIEWSTYLE
  2
AcDbSectionViewStyle
  3
ObjectDBX Classes
 90
     1025
 91
        2
280
     0
281
     0
  0
CLASS
  1
ACDBDETAILVIEWSTYLE
  2
AcDbDetailViewStyle
  3
ObjectDBX Classes
 90
     1025
 91
        2
280
     0
281
     0
  0
CLASS
  1
DICTIONARYVAR
  2
AcDbDictionaryVar
  3
ObjectDBX Classes
 90
        0
 91
        5
280
     0
281
     0
  0
CLASS
  1
CELLSTYLEMAP
  2
AcDbCellStyleMap
  3
ObjectDBX Classes
 90
     1152
 91
        2
280
     0
281
     0
  0
ENDSEC
  0
SECTION
  2
TABLES
  0
TABLE
  2
VPORT
  5
8
330
0
100
AcDbSymbolTable
 70
     1
  0
VPORT
  5
57
330
8
100
AcDbSymbolTableRecord
100
AcDbViewportTableRecord
  2
*Active
 70
     0
 10
0.0
 20
0.0
 11
1.0
 21
1.0
 12
52.5
 22
74.25
 13
0.0
 23
0.0
 14
1.0
 24
1.0
 15
0.0
 25
0.0
 16
0.0
 26
0.0
 36
1.0
 17
0.0
 27
0.0
 37
0.0
 40
148.5
 41
0.7070707070707071
 42
50.0
 43
0.0
 44
0.0
 50
0.0
 51
0.0
 71
     0
 72
   100
 73
     1
 74
     1
 75
     0
 76
     0
 77
     0
 78
     0
281
     0
 65
     1
110
0.0
120
0.0
130
0.0
111
1.0
121
0.0
131
0.0
112
0.0
122
1.0
132
0.0
 79
     0
146
0.0
 60
     3
 61
     5
292
     1
282
     1
141
0.0
142
0.0
 63
   250
421
  3355443
  0
ENDTAB
  0
TABLE
  2
LTYPE
  5
5
330
0
100
AcDbSymbolTable
 70
    59
  0
LTYPE
  5
5B
330
5
100
AcDbSymbolTableRecord
100
AcDbLinetypeTableRecord
  2
ByBlock
 70
     0
  3

 72
    65
 73
     0
 40
0.0
  0
LTYPE
  5
5C
330
5
100
AcDbSymbolTableRecord
100
AcDbLinetypeTableRecord
  2
ByLayer
 70
     0
  3

 72
    65
 73
     0
 40
0.0
  0
LTYPE
  5
5D
330
5
100
AcDbSymbolTableRecord
100
AcDbLinetypeTableRecord
  2
Continuous
 70
     0
  3
Solid line
 72
    65
 73
     0
 40
0.0
  0
LTYPE
  5
69
330
5
100
AcDbSymbolTableRecord
100
AcDbLinetypeTableRecord
  2
PHANTOM2
 70
     0
  3
Phantom (.5x) ___ _ _ ___ _ _ ___ _ _ ___ _ _
 72
    65
 73
     6
 40
1.25
 49
0.625
 74
     0
 49
-0.125
 74
     0
 49
0.125
 74
     0
 49
-0.125
 74
     0
 49
0.125
 74
     0
 49
-0.125
 74
     0
  0
LTYPE
  5
79
330
5
100
AcDbSymbolTableRecord
100
AcDbLinetypeTableRecord
  2
Section_View_Lines
 70
     0
  3
Section View Lines
 72
    65
 73
     4
 40
0.8406
 49
0.6614
 74
     0
 49
-0.0827
 74
     0
 49
0.0138
 74
     0
 49
-0.0827
 74
     0
  0
LTYPE
  5
7A
330
5
100
AcDbSymbolTableRecord
100
AcDbLinetypeTableRecord
  2
CHAIN
 70
     0
  3
Chain ____ _ ____ _ ____ _ ____ _ ____ _ ____
 72
    65
 73
     4
 40
0.3543
 49
0.2362
 74
     0
 49
-0.0295
 74
     0
 49
0.0591
 74
     0
 49
-0.0295
 74
     0
  0
LTYPE
  5
7B
330
5
100
AcDbSymbolTableRecord
100
AcDbLinetypeTableRecord
  2
DASH_DOT
 70
     0
  3
Dash dot _._._._._._._._._._._._._._._.
 72
    65
 73
     4
 40
0.37
 49
0.24
 74
     0
 49
-0.06
 74
     0
 49
0.01
 74
     0
 49
-0.06
 74
     0
  0
LTYPE
  5
7C
330
5
100
AcDbSymbolTableRecord
100
AcDbLinetypeTableRecord
  2
DASH_DOUBLE_DOT
 70
     0
  3
Dash Double Dot __ __ . __ __ . __ __ . __ _
 72
    65
 73
     6
 40
0.4398000000000001
 49
0.24
 74
     0
 49
-0.06
 74
     0
 49
0.0098
 74
     0
 49
-0.06
 74
     0
 49
0.01
 74
     0
 49
-0.06
 74
     0
  0
LTYPE
  5
7D
330
5
100
AcDbSymbolTableRecord
100
AcDbLinetypeTableRecord
  2
DASH_TRIPLE_DOT
 70
     0
  3
Dash Triple-Dot _ . . . _ . . . _ . . . _
 72
    65
 73
     8
 40
0.51
 49
0.24
 74
     0
 49
-0.06
 74
     0
 49
0.01
 74
     0
 49
-0.06
 74
     0
 49
0.01
 74
     0
 49
-0.06
 74
     0
 49
0.01
 74
     0
 49
-0.06
 74
     0
  0
LTYPE
  5
7E
330
5
100
AcDbSymbolTableRecord
100
AcDbLinetypeTableRecord
  2
DASHED
 70
     0
  3
Dashed __ __ __ __ __ __ __ __ __ __ __ __ __ _
 72
    65
 73
     2
 40
0.2067
 49
0.1654
 74
     0
 49
-0.0413
 74
     0
  0
LTYPE
  5
7F
330
5
100
AcDbSymbolTableRecord
100
AcDbLinetypeTableRecord
  2
DASHED_SPACE
 70
     0
  3
Dashed Space _._._._._._._._._._._._._._._.
 72
    65
 73
     2
 40
0.2067
 49
0.1654
 74
     0
 49
-0.0413
 74
     0
  0
LTYPE
  5
80
330
5
100
AcDbSymbolTableRecord
100
AcDbLinetypeTableRecord
  2
DOTTED
 70
     0
  3
Dotted . . . . . . . . . . . . . . . . . . . . 
 72
    65
 73
     2
 40
0.0482
 49
0.0069
 74
     0
 49
-0.0413
 74
     0
  0
LTYPE
  5
81
330
5
100
AcDbSymbolTableRecord
100
AcDbLinetypeTableRecord
  2
DOUBLE_DASH_CHAIN
 70
     0
  3
Double Dash Chain ___ _ _ ___ _ _ ___ _ _ ___ _
 72
    65
 73
     6
 40
1.240299999999998
 49
0.6614
 74
     0
 49
-0.0827
 74
     0
 49
0.1654
 74
     0
 49
-0.0827
 74
     0
 49
0.1654
 74
     0
 49
-0.0827
 74
     0
  0
LTYPE
  5
82
330
5
100
AcDbSymbolTableRecord
100
AcDbLinetypeTableRecord
  2
DOUBLE_DASH_DOT
 70
     0
  3
Double Dash Dot __ __ . __ __ . __ __ . __ _
 72
    65
 73
     6
 40
0.6700000000000001
 49
0.24
 74
     0
 49
-0.06
 74
     0
 49
0.24
 74
     0
 49
-0.06
 74
     0
 49
0.01
 74
     0
 49
-0.06
 74
     0
  0
LTYPE
  5
83
330
5
100
AcDbSymbolTableRecord
100
AcDbLinetypeTableRecord
  2
DOUBLE_DASH_DOUBLE_DOT
 70
     0
  3
Double-dash double-dot _ _ . . _ _ . . _
 72
    65
 73
     8
 40
0.7400000000000002
 49
0.24
 74
     0
 49
-0.06
 74
     0
 49
0.24
 74
     0
 49
-0.06
 74
     0
 49
0.01
 74
     0
 49
-0.06
 74
     0
 49
0.01
 74
     0
 49
-0.06
 74
     0
  0
LTYPE
  5
84
330
5
100
AcDbSymbolTableRecord
100
AcDbLinetypeTableRecord
  2
DOUBLE_DASH_TRIPLE_DOT
 70
     0
  3
Double Dash Triple Dot __ __ . . . __ __ . . .
 72
    65
 73
    10
 40
0.8100000000000001
 49
0.24
 74
     0
 49
-0.06
 74
     0
 49
0.24
 74
     0
 49
-0.06
 74
     0
 49
0.01
 74
     0
 49
-0.06
 74
     0
 49
0.01
 74
     0
 49
-0.06
 74
     0
 49
0.01
 74
     0
 49
-0.06
 74
     0
  0
LTYPE
  5
85
330
5
100
AcDbSymbolTableRecord
100
AcDbLinetypeTableRecord
  2
LONG_DASH_DOTTED
 70
     0
  3
Long-Dash Dot ____ . ____ . ____ . ____ . _
 72
    65
 73
     4
 40
0.3001
 49
0.2362
 74
     0
 49
-0.0295
 74
     0
 49
0.0049
 74
     0
 49
-0.0295
 74
     0
  0
LTYPE
  5
86
330
5
100
AcDbSymbolTableRecord
100
AcDbLinetypeTableRecord
  2
LONG_DASH_DOUBLE_DOT
 70
     0
  3
Long Dash Double Dot ____ . . ____ . . ____ . .
 72
    65
 73
     6
 40
0.3345
 49
0.2362
 74
     0
 49
-0.0295
 74
     0
 49
0.0049
 74
     0
 49
-0.0295
 74
     0
 49
0.0049
 74
     0
 49
-0.0295
 74
     0
  0
LTYPE
  5
87
330
5
100
AcDbSymbolTableRecord
100
AcDbLinetypeTableRecord
  2
LONG_DASH_TRIPLE_DOT
 70
     0
  3
Long Dash Triple Dot ____ ... ____ ... ____
 72
    65
 73
     8
 40
0.75
 49
0.48
 74
     0
 49
-0.06
 74
     0
 49
0.01
 74
     0
 49
-0.06
 74
     0
 49
0.01
 74
     0
 49
-0.06
 74
     0
 49
0.01
 74
     0
 49
-0.06
 74
     0
  0
LTYPE
  5
88
330
5
100
AcDbSymbolTableRecord
100
AcDbLinetypeTableRecord
  2
BORDER
 70
     0
  3
Border __ __ . __ __ . __ __ . __ __ . __ __ .
 72
    65
 73
     6
 40
44.45
 49
12.7
 74
     0
 49
-6.349999999999998
 74
     0
 49
12.7
 74
     0
 49
-6.349999999999998
 74
     0
 49
0.0
 74
     0
 49
-6.349999999999998
 74
     0
  0
LTYPE
  5
89
330
5
100
AcDbSymbolTableRecord
100
AcDbLinetypeTableRecord
  2
BORDER2
 70
     0
  3
Border (.5x) __.__.__.__.__.__.__.__.__.__.__.
 72
    65
 73
     6
 40
22.225
 49
6.349999999999998
 74
     0
 49
-3.174999999999998
 74
     0
 49
6.349999999999998
 74
     0
 49
-3.174999999999998
 74
     0
 49
0.0
 74
     0
 49
-3.174999999999998
 74
     0
  0
LTYPE
  5
8A
330
5
100
AcDbSymbolTableRecord
100
AcDbLinetypeTableRecord
  2
BORDERX2
 70
     0
  3
Border (2x) ____  ____  .  ____  ____  .  ___
 72
    65
 73
     6
 40
88.9
 49
25.4
 74
     0
 49
-12.7
 74
     0
 49
25.4
 74
     0
 49
-12.7
 74
     0
 49
0.0
 74
     0
 49
-12.7
 74
     0
  0
LTYPE
  5
8B
330
5
100
AcDbSymbolTableRecord
100
AcDbLinetypeTableRecord
  2
CENTER
 70
     0
  3
Center ____ _ ____ _ ____ _ ____ _ ____ _ ____
 72
    65
 73
     4
 40
50.8
 49
31.75
 74
     0
 49
-6.349999999999998
 74
     0
 49
6.349999999999998
 74
     0
 49
-6.349999999999998
 74
     0
  0
LTYPE
  5
8C
330
5
100
AcDbSymbolTableRecord
100
AcDbLinetypeTableRecord
  2
CENTER2
 70
     0
  3
Center (.5x) ___ _ ___ _ ___ _ ___ _ ___ _ ___
 72
    65
 73
     4
 40
28.575
 49
19.05
 74
     0
 49
-3.174999999999998
 74
     0
 49
3.174999999999998
 74
     0
 49
-3.174999999999998
 74
     0
  0
LTYPE
  5
8D
330
5
100
AcDbSymbolTableRecord
100
AcDbLinetypeTableRecord
  2
CENTERX2
 70
     0
  3
Center (2x) ________  __  ________  __  _____
 72
    65
 73
     4
 40
101.6
 49
63.5
 74
     0
 49
-12.7
 74
     0
 49
12.7
 74
     0
 49
-12.7
 74
     0
  0
LTYPE
  5
8E
330
5
100
AcDbSymbolTableRecord
100
AcDbLinetypeTableRecord
  2
DASHDOT2
 70
     0
  3
Dash dot (.5x) _._._._._._._._._._._._._._._.
 72
    65
 73
     4
 40
12.7
 49
6.349999999999998
 74
     0
 49
-3.174999999999998
 74
     0
 49
0.0
 74
     0
 49
-3.174999999999998
 74
     0
  0
LTYPE
  5
8F
330
5
100
AcDbSymbolTableRecord
100
AcDbLinetypeTableRecord
  2
DASHDOTX2
 70
     0
  3
Dash dot (2x) ____  .  ____  .  ____  .  ___
 72
    65
 73
     4
 40
50.8
 49
25.4
 74
     0
 49
-12.7
 74
     0
 49
0.0
 74
     0
 49
-12.7
 74
     0
  0
LTYPE
  5
90
330
5
100
AcDbSymbolTableRecord
100
AcDbLinetypeTableRecord
  2
DASHED2
 70
     0
  3
Dashed (.5x) _ _ _ _ _ _ _ _ _ _ _ _ _ _ _ _ _
 72
    65
 73
     2
 40
9.524999999999996
 49
6.349999999999998
 74
     0
 49
-3.174999999999998
 74
     0
  0
LTYPE
  5
91
330
5
100
AcDbSymbolTableRecord
100
AcDbLinetypeTableRecord
  2
DASHEDX2
 70
     0
  3
Dashed (2x) ____  ____  ____  ____  ____  ___
 72
    65
 73
     2
 40
38.1
 49
25.4
 74
     0
 49
-12.7
 74
     0
  0
LTYPE
  5
92
330
5
100
AcDbSymbolTableRecord
100
AcDbLinetypeTableRecord
  2
DIVIDE
 70
     0
  3
Divide ____ . . ____ . . ____ . . ____ . . ____
 72
    65
 73
     6
 40
31.75
 49
12.7
 74
     0
 49
-6.349999999999998
 74
     0
 49
0.0
 74
     0
 49
-6.349999999999998
 74
     0
 49
0.0
 74
     0
 49
-6.349999999999998
 74
     0
  0
LTYPE
  5
93
330
5
100
AcDbSymbolTableRecord
100
AcDbLinetypeTableRecord
  2
DIVIDE2
 70
     0
  3
Divide (.5x) __..__..__..__..__..__..__..__.._
 72
    65
 73
     6
 40
15.875
 49
6.349999999999998
 74
     0
 49
-3.174999999999998
 74
     0
 49
0.0
 74
     0
 49
-3.174999999999998
 74
     0
 49
0.0
 74
     0
 49
-3.174999999999998
 74
     0
  0
LTYPE
  5
94
330
5
100
AcDbSymbolTableRecord
100
AcDbLinetypeTableRecord
  2
DIVIDEX2
 70
     0
  3
Divide (2x) ________  .  .  ________  .  .  _
 72
    65
 73
     6
 40
63.49999999999999
 49
25.4
 74
     0
 49
-12.7
 74
     0
 49
0.0
 74
     0
 49
-12.7
 74
     0
 49
0.0
 74
     0
 49
-12.7
 74
     0
  0
LTYPE
  5
95
330
5
100
AcDbSymbolTableRecord
100
AcDbLinetypeTableRecord
  2
DOT
 70
     0
  3
Dot . . . . . . . . . . . . . . . . . . . . . .
 72
    65
 73
     2
 40
6.349999999999998
 49
0.0
 74
     0
 49
-6.349999999999998
 74
     0
  0
LTYPE
  5
96
330
5
100
AcDbSymbolTableRecord
100
AcDbLinetypeTableRecord
  2
DOT2
 70
     0
  3
Dot (.5x) .....................................
 72
    65
 73
     2
 40
3.174999999999998
 49
0.0
 74
     0
 49
-3.174999999999998
 74
     0
  0
LTYPE
  5
97
330
5
100
AcDbSymbolTableRecord
100
AcDbLinetypeTableRecord
  2
DOTX2
 70
     0
  3
Dot (2x) .  .  .  .  .  .  .  .  .  .  .  .  . 
 72
    65
 73
     2
 40
12.7
 49
0.0
 74
     0
 49
-12.7
 74
     0
  0
LTYPE
  5
98
330
5
100
AcDbSymbolTableRecord
100
AcDbLinetypeTableRecord
  2
HIDDEN
 70
     0
  3
Hidden __ __ __ __ __ __ __ __ __ __ __ __ __ _
 72
    65
 73
     2
 40
9.524999999999996
 49
6.349999999999998
 74
     0
 49
-3.174999999999998
 74
     0
  0
LTYPE
  5
99
330
5
100
AcDbSymbolTableRecord
100
AcDbLinetypeTableRecord
  2
HIDDEN2
 70
     0
  3
Hidden (.5x) _ _ _ _ _ _ _ _ _ _ _ _ _ _ _ _ _
 72
    65
 73
     2
 40
4.762499999999998
 49
3.174999999999998
 74
     0
 49
-1.587499999999999
 74
     0
  0
LTYPE
  5
9A
330
5
100
AcDbSymbolTableRecord
100
AcDbLinetypeTableRecord
  2
HIDDENX2
 70
     0
  3
Hidden (2x) ____ ____ ____ ____ ____ ____ ____
 72
    65
 73
     2
 40
19.05
 49
12.7
 74
     0
 49
-6.349999999999998
 74
     0
  0
LTYPE
  5
9B
330
5
100
AcDbSymbolTableRecord
100
AcDbLinetypeTableRecord
  2
PHANTOM
 70
     0
  3
Phantom ______  __  __  ______  __  __  ______
 72
    65
 73
     6
 40
63.5
 49
31.75
 74
     0
 49
-6.349999999999998
 74
     0
 49
6.349999999999998
 74
     0
 49
-6.349999999999998
 74
     0
 49
6.349999999999998
 74
     0
 49
-6.349999999999998
 74
     0
  0
LTYPE
  5
9D
330
5
100
AcDbSymbolTableRecord
100
AcDbLinetypeTableRecord
  2
PHANTOMX2
 70
     0
  3
Phantom (2x) ____________    ____    ____   _
 72
    65
 73
     6
 40
127.0
 49
63.5
 74
     0
 49
-12.7
 74
     0
 49
12.7
 74
     0
 49
-12.7
 74
     0
 49
12.7
 74
     0
 49
-12.7
 74
     0
  0
LTYPE
  5
9E
330
5
100
AcDbSymbolTableRecord
100
AcDbLinetypeTableRecord
  2
ACAD_ISO02W100
 70
     0
  3
ISO dash __ __ __ __ __ __ __ __ __ __ __ __ __
 72
    65
 73
     2
 40
15.0
 49
12.0
 74
     0
 49
-3.0
 74
     0
  0
LTYPE
  5
9F
330
5
100
AcDbSymbolTableRecord
100
AcDbLinetypeTableRecord
  2
ACAD_ISO03W100
 70
     0
  3
ISO dash space __    __    __    __    __    __
 72
    65
 73
     2
 40
30.0
 49
12.0
 74
     0
 49
-18.0
 74
     0
  0
LTYPE
  5
A0
330
5
100
AcDbSymbolTableRecord
100
AcDbLinetypeTableRecord
  2
ACAD_ISO04W100
 70
     0
  3
ISO long-dash dot ____ . ____ . ____ . ____ . _
 72
    65
 73
     4
 40
30.0
 49
24.0
 74
     0
 49
-3.0
 74
     0
 49
0.0
 74
     0
 49
-3.0
 74
     0
  0
LTYPE
  5
A1
330
5
100
AcDbSymbolTableRecord
100
AcDbLinetypeTableRecord
  2
ACAD_ISO05W100
 70
     0
  3
ISO long-dash double-dot ____ .. ____ .. ____ .
 72
    65
 73
     6
 40
33.0
 49
24.0
 74
     0
 49
-3.0
 74
     0
 49
0.0
 74
     0
 49
-3.0
 74
     0
 49
0.0
 74
     0
 49
-3.0
 74
     0
  0
LTYPE
  5
A2
330
5
100
AcDbSymbolTableRecord
100
AcDbLinetypeTableRecord
  2
ACAD_ISO06W100
 70
     0
  3
ISO long-dash triple-dot ____ ... ____ ... ____
 72
    65
 73
     8
 40
36.0
 49
24.0
 74
     0
 49
-3.0
 74
     0
 49
0.0
 74
     0
 49
-3.0
 74
     0
 49
0.0
 74
     0
 49
-3.0
 74
     0
 49
0.0
 74
     0
 49
-3.0
 74
     0
  0
LTYPE
  5
A3
330
5
100
AcDbSymbolTableRecord
100
AcDbLinetypeTableRecord
  2
ACAD_ISO07W100
 70
     0
  3
ISO dot . . . . . . . . . . . . . . . . . . . .
 72
    65
 73
     2
 40
3.0
 49
0.0
 74
     0
 49
-3.0
 74
     0
  0
LTYPE
  5
A4
330
5
100
AcDbSymbolTableRecord
100
AcDbLinetypeTableRecord
  2
ACAD_ISO08W100
 70
     0
  3
ISO long-dash short-dash ____ __ ____ __ ____ _
 72
    65
 73
     4
 40
36.0
 49
24.0
 74
     0
 49
-3.0
 74
     0
 49
6.0
 74
     0
 49
-3.0
 74
     0
  0
LTYPE
  5
A5
330
5
100
AcDbSymbolTableRecord
100
AcDbLinetypeTableRecord
  2
ACAD_ISO09W100
 70
     0
  3
ISO long-dash double-short-dash ____ __ __ ____
 72
    65
 73
     6
 40
45.0
 49
24.0
 74
     0
 49
-3.0
 74
     0
 49
6.0
 74
     0
 49
-3.0
 74
     0
 49
6.0
 74
     0
 49
-3.0
 74
     0
  0
LTYPE
  5
A6
330
5
100
AcDbSymbolTableRecord
100
AcDbLinetypeTableRecord
  2
ACAD_ISO10W100
 70
     0
  3
ISO dash dot __ . __ . __ . __ . __ . __ . __ .
 72
    65
 73
     4
 40
18.0
 49
12.0
 74
     0
 49
-3.0
 74
     0
 49
0.0
 74
     0
 49
-3.0
 74
     0
  0
LTYPE
  5
A7
330
5
100
AcDbSymbolTableRecord
100
AcDbLinetypeTableRecord
  2
ACAD_ISO11W100
 70
     0
  3
ISO double-dash dot __ __ . __ __ . __ __ . __ 
 72
    65
 73
     6
 40
33.0
 49
12.0
 74
     0
 49
-3.0
 74
     0
 49
12.0
 74
     0
 49
-3.0
 74
     0
 49
0.0
 74
     0
 49
-3.0
 74
     0
  0
LTYPE
  5
A8
330
5
100
AcDbSymbolTableRecord
100
AcDbLinetypeTableRecord
  2
ACAD_ISO12W100
 70
     0
  3
ISO dash double-dot __ . . __ . . __ . . __ . .
 72
    65
 73
     6
 40
21.0
 49
12.0
 74
     0
 49
-3.0
 74
     0
 49
0.0
 74
     0
 49
-3.0
 74
     0
 49
0.0
 74
     0
 49
-3.0
 74
     0
  0
LTYPE
  5
A9
330
5
100
AcDbSymbolTableRecord
100
AcDbLinetypeTableRecord
  2
ACAD_ISO13W100
 70
     0
  3
ISO double-dash double-dot __ __ . . __ __ . . 
 72
    65
 73
     8
 40
36.0
 49
12.0
 74
     0
 49
-3.0
 74
     0
 49
12.0
 74
     0
 49
-3.0
 74
     0
 49
0.0
 74
     0
 49
-3.0
 74
     0
 49
0.0
 74
     0
 49
-3.0
 74
     0
  0
LTYPE
  5
AA
330
5
100
AcDbSymbolTableRecord
100
AcDbLinetypeTableRecord
  2
ACAD_ISO14W100
 70
     0
  3
ISO dash triple-dot __ . . . __ . . . __ . . . 
 72
    65
 73
     8
 40
24.0
 49
12.0
 74
     0
 49
-3.0
 74
     0
 49
0.0
 74
     0
 49
-3.0
 74
     0
 49
0.0
 74
     0
 49
-3.0
 74
     0
 49
0.0
 74
     0
 49
-3.0
 74
     0
  0
LTYPE
  5
AB
330
5
100
AcDbSymbolTableRecord
100
AcDbLinetypeTableRecord
  2
ACAD_ISO15W100
 70
     0
  3
ISO double-dash triple-dot __ __ . . . __ __ . 
 72
    65
 73
    10
 40
39.0
 49
12.0
 74
     0
 49
-3.0
 74
     0
 49
12.0
 74
     0
 49
-3.0
 74
     0
 49
0.0
 74
     0
 49
-3.0
 74
     0
 49
0.0
 74
     0
 49
-3.0
 74
     0
 49
0.0
 74
     0
 49
-3.0
 74
     0
  0
LTYPE
  5
AE
330
5
100
AcDbSymbolTableRecord
100
AcDbLinetypeTableRecord
  2
FENCELINE1
 70
     0
  3
Fenceline circle ----0-----0----0-----0----0---
 72
    65
 73
     4
 40
36.83
 49
6.349999999999998
 74
     0
 49
-2.54
 74
     4
 75
   133
340
AD
 46
2.54
 50
0.0
 44
-2.54
 45
0.0
 49
-2.54
 74
     0
 49
25.4
 74
     0
  0
LTYPE
  5
AF
330
5
100
AcDbSymbolTableRecord
100
AcDbLinetypeTableRecord
  2
FENCELINE2
 70
     0
  3
Fenceline square ----[]-----[]----[]-----[]----
 72
    65
 73
     4
 40
36.83
 49
6.349999999999998
 74
     0
 49
-2.54
 74
     4
 75
   132
340
AD
 46
2.54
 50
0.0
 44
-2.54
 45
0.0
 49
-2.54
 74
     0
 49
25.4
 74
     0
  0
LTYPE
  5
B0
330
5
100
AcDbSymbolTableRecord
100
AcDbLinetypeTableRecord
  2
TRACKS
 70
     0
  3
Tracks -|-|-|-|-|-|-|-|-|-|-|-|-|-|-|-|-|-|-|-|
 72
    65
 73
     2
 40
7.62
 49
3.81
 74
     4
 75
   130
340
AD
 46
6.349999999999998
 50
0.0
 44
0.0
 45
0.0
 49
3.81
 74
     0
  0
LTYPE
  5
B1
330
5
100
AcDbSymbolTableRecord
100
AcDbLinetypeTableRecord
  2
BATTING
 70
     0
  3
Batting SSSSSSSSSSSSSSSSSSSSSSSSSSSSSSSSSSSSSSS
 72
    65
 73
     4
 40
10.16254
 49
0.00254
 74
     0
 49
-2.54
 74
     4
 75
   134
340
AD
 46
2.54
 50
0.0
 44
-2.54
 45
0.0
 49
-5.08
 74
     4
 75
   134
340
AD
 46
2.54
 50
180.0
 44
2.54
 45
0.0
 49
-2.54
 74
     0
  0
LTYPE
  5
B2
330
5
100
AcDbSymbolTableRecord
100
AcDbLinetypeTableRecord
  2
HOT_WATER_SUPPLY
 70
     0
  3
Hot water supply ---- HW ---- HW ---- HW ----
 72
    65
 73
     3
 40
22.86
 49
12.7
 74
     0
 49
-5.08
 74
     2
 75
     0
340
55
 46
2.54
 50
0.0
 44
-2.54
 45
-1.27
  9
HW
 49
-5.08
 74
     0
  0
LTYPE
  5
B3
330
5
100
AcDbSymbolTableRecord
100
AcDbLinetypeTableRecord
  2
GAS_LINE
 70
     0
  3
Gas line ----GAS----GAS----GAS----GAS----GAS---
 72
    65
 73
     3
 40
24.13
 49
12.7
 74
     0
 49
-5.08
 74
     2
 75
     0
340
55
 46
2.54
 50
0.0
 44
-2.54
 45
-1.27
  9
GAS
 49
-6.349999999999998
 74
     0
  0
LTYPE
  5
B4
330
5
100
AcDbSymbolTableRecord
100
AcDbLinetypeTableRecord
  2
ZIGZAG
 70
     0
  3
Zig zag /\/\/\/\/\/\/\/\/\/\/\/\/\/\/\/\/\/\/\/
 72
    65
 73
     4
 40
20.32254
 49
0.00254
 74
     0
 49
-5.08
 74
     4
 75
   131
340
AD
 46
5.08
 50
0.0
 44
-5.08
 45
0.0
 49
-10.16
 74
     4
 75
   131
340
AD
 46
5.08
 50
180.0
 44
5.08
 45
0.0
 49
-5.08
 74
     0
  0
ENDTAB
  0
TABLE
  2
LAYER
  5
2
330
0
100
AcDbSymbolTable
 70
    13
  0
LAYER
  5
54
330
2
100
AcDbSymbolTableRecord
100
AcDbLayerTableRecord
  2
0
 70
     0
 62
     7
  6
Continuous
370
    -3
390
F
347
21
  0
LAYER
  5
B9
330
2
100
AcDbSymbolTableRecord
100
AcDbLayerTableRecord
  2
Bemaßung (ISO)
 70
     0
 62
     7
  6
Continuous
370
    25
390
F
347
21
  0
LAYER
  5
BE
330
2
100
AcDbSymbolTableRecord
100
AcDbLayerTableRecord
  2
Mittellinie (ISO)
 70
     0
 62
     7
  6
Continuous
370
    25
390
F
347
21
  0
LAYER
  5
BF
330
2
100
AcDbSymbolTableRecord
100
AcDbLayerTableRecord
  2
Mittelpunktmarkierung (ISO)
 70
     0
 62
     7
  6
Continuous
370
    25
390
F
347
21
  0
LAYER
  5
C1
330
2
100
AcDbSymbolTableRecord
100
AcDbLayerTableRecord
  2
Rahmen (ISO)
 70
     0
 62
     7
  6
Continuous
370
    70
390
F
347
21
  0
LAYER
  5
C4
330
2
100
AcDbSymbolTableRecord
100
AcDbLayerTableRecord
  2
rot
 70
     0
 62
     1
420
 16711680
  6
Continuous
370
    25
390
F
347
21
  0
LAYER
  5
C6
330
2
100
AcDbSymbolTableRecord
100
AcDbLayerTableRecord
  2
Schraffur (ISO)
 70
     0
 62
     7
  6
Continuous
370
    18
390
F
347
21
  0
LAYER
  5
C7
330
2
100
AcDbSymbolTableRecord
100
AcDbLayerTableRecord
  2
Sichtbar (ISO)
 70
     0
 62
     7
  6
Continuous
370
    50
390
F
347
21
  0
LAYER
  5
C8
330
2
100
AcDbSymbolTableRecord
100
AcDbLayerTableRecord
  2
Sichtbar schmal (ISO)
 70
     0
 62
     7
  6
Continuous
370
    35
390
F
347
21
  0
LAYER
  5
C9
330
2
100
AcDbSymbolTableRecord
100
AcDbLayerTableRecord
  2
Skizziergeometrie (ISO)
 70
     0
 62
     7
  6
Continuous
370
    25
390
F
347
21
  0
LAYER
  5
CA
330
2
100
AcDbSymbolTableRecord
100
AcDbLayerTableRecord
  2
Symbol (ISO)
 70
     0
 62
     7
  6
Continuous
370
    25
390
F
347
21
  0
LAYER
  5
CB
330
2
100
AcDbSymbolTableRecord
100
AcDbLayerTableRecord
  2
Titel (ISO)
 70
     0
 62
     7
  6
Continuous
370
    50
390
F
347
21
  0
LAYER
  5
2DE
330
2
100
AcDbSymbolTableRecord
100
AcDbLayerTableRecord
  2
Defpoints
 70
     0
 62
     7
  6
Continuous
290
     0
370
    -3
390
F
347
21
  0
ENDTAB
  0
TABLE
  2
STYLE
  5
3
330
0
100
AcDbSymbolTable
 70
    14
  0
STYLE
  5
55
330
3
100
AcDbSymbolTableRecord
100
AcDbTextStyleTableRecord
  2
Standard
 70
     0
 40
0.0
 41
1.0
 50
0.0
 71
     0
 42
0.2
  3
arial.ttf
  4

1001
ACAD
1000
Arial
1071
      256
  0
STYLE
  5
5A
330
3
100
AcDbSymbolTableRecord
100
AcDbTextStyleTableRecord
  2
Annotative
 70
     0
 40
0.0
 41
1.0
 50
0.0
 71
     0
 42
0.2
  3
txt
  4

1001
AcadAnnotative
1000
AnnotativeData
1002
{
1070
     1
1070
     1
1002
}
  0
STYLE
  5
AD
330
3
100
AcDbSymbolTableRecord
100
AcDbTextStyleTableRecord
  2

 70
     1
 40
0.0
 41
1.0
 50
0.0
 71
     0
 42
0.2
  3
ltypeshp.shx
  4

  0
STYLE
  5
CF
330
3
100
AcDbSymbolTableRecord
100
AcDbTextStyleTableRecord
  2
Bezeichnungstext (DIN)
 70
     0
 40
0.0
 41
1.0
 50
0.0
 71
     0
 42
0.2
  3
arial.ttf
  4

1001
ACAD
1000
Arial
1071
      256
  0
STYLE
  5
D0
330
3
100
AcDbSymbolTableRecord
100
AcDbTextStyleTableRecord
  2
Notiztext (DIN)
 70
     0
 40
0.0
 41
1.0
 50
0.0
 71
     0
 42
0.2
  3
arial.ttf
  4

1001
ACAD
1000
Arial
1071
      256
  0
STYLE
  5
1B7
330
3
100
AcDbSymbolTableRecord
100
AcDbTextStyleTableRecord
  2
Textstil54
 70
     0
 40
0.0
 41
1.0
 50
0.0
 71
     0
 42
0.2
  3

  4

1001
ACAD
1000
Arial
1071
 33554688
  0
STYLE
  5
1C0
330
3
100
AcDbSymbolTableRecord
100
AcDbTextStyleTableRecord
  2
Textstil55
 70
     0
 40
0.0
 41
1.0
 50
0.0
 71
     0
 42
0.2
  3

  4

1001
ACAD
1000
Arial
1071
 33554688
  0
STYLE
  5
1C3
330
3
100
AcDbSymbolTableRecord
100
AcDbTextStyleTableRecord
  2
Textstil58
 70
     0
 40
0.0
 41
1.0
 50
0.0
 71
     0
 42
0.2
  3

  4

1001
ACAD
1000
Arial
1071
 33554688
  0
STYLE
  5
1CA
330
3
100
AcDbSymbolTableRecord
100
AcDbTextStyleTableRecord
  2
Textstil61
 70
     0
 40
0.0
 41
1.0
 50
0.0
 71
     0
 42
0.2
  3

  4

1001
ACAD
1000
Arial
1071
 33554688
  0
STYLE
  5
1D5
330
3
100
AcDbSymbolTableRecord
100
AcDbTextStyleTableRecord
  2
Textstil29
 70
     0
 40
0.0
 41
1.0
 50
0.0
 71
     0
 42
0.2
  3
arial.ttf
  4

1001
ACAD
1000
Arial
1071
      256
  0
STYLE
  5
1D7
330
3
100
AcDbSymbolTableRecord
100
AcDbTextStyleTableRecord
  2
Textstil57
 70
     0
 40
0.0
 41
1.0
 50
0.0
 71
     0
 42
0.2
  3

  4

1001
ACAD
1000
Arial
1071
 33554688
  0
STYLE
  5
1F8
330
3
100
AcDbSymbolTableRecord
100
AcDbTextStyleTableRecord
  2
Textstil59
 70
     0
 40
0.0
 41
1.0
 50
0.0
 71
     0
 42
0.2
  3

  4

1001
ACAD
1000
Arial
1071
 33554688
  0
STYLE
  5
1FB
330
3
100
AcDbSymbolTableRecord
100
AcDbTextStyleTableRecord
  2
Textstil56
 70
     0
 40
0.0
 41
1.0
 50
0.0
 71
     0
 42
0.2
  3

  4

1001
ACAD
1000
Arial
1071
 33554688
  0
STYLE
  5
200
330
3
100
AcDbSymbolTableRecord
100
AcDbTextStyleTableRecord
  2
Textstil53
 70
     0
 40
0.0
 41
1.0
 50
0.0
 71
     0
 42
0.2
  3

  4

1001
ACAD
1000
Arial
1071
 33554688
  0
ENDTAB
  0
TABLE
  2
VIEW
  5
6
330
0
100
AcDbSymbolTable
 70
     0
  0
ENDTAB
  0
TABLE
  2
UCS
  5
7
330
0
100
AcDbSymbolTable
 70
     0
  0
ENDTAB
  0
TABLE
  2
APPID
  5
9
330
0
100
AcDbSymbolTable
 70
     3
  0
APPID
  5
56
330
9
100
AcDbSymbolTableRecord
100
AcDbRegAppTableRecord
  2
ACAD
 70
     0
  0
APPID
  5
5E
330
9
100
AcDbSymbolTableRecord
100
AcDbRegAppTableRecord
  2
AcadAnnotative
 70
     0
  0
APPID
  5
1D4
330
9
100
AcDbSymbolTableRecord
100
AcDbRegAppTableRecord
  2
AcadAnnoPO
 70
     0
  0
ENDTAB
  0
TABLE
  2
DIMSTYLE
  5
A
330
0
100
AcDbSymbolTable
 70
    11
100
AcDbDimStyleTable
 71
     2
340
D5
340
58
  0
DIMSTYLE
105
58
330
A
100
AcDbSymbolTableRecord
100
AcDbDimStyleTableRecord
  2
Standard
 70
     0
340
55
  0
DIMSTYLE
105
59
330
A
100
AcDbSymbolTableRecord
100
AcDbDimStyleTableRecord
  2
Annotative
 70
     0
340
55
1001
AcadAnnotative
1000
AnnotativeData
1002
{
1070
     1
1070
     1
1002
}
  0
DIMSTYLE
105
D1
330
A
100
AcDbSymbolTableRecord
100
AcDbDimStyleTableRecord
  2
Standard - Methode 2a (DIN)
 70
     0
 40
0.5
 41
2.5
 42
0.8
 43
5.999999999999999
 44
3.174999999999998
 45
0.00000001
 46
10.0
 77
     1
 78
     8
 79
     2
140
2.5
143
0.03937
146
1.399999976158142
147
0.8
170
     1
171
     3
172
     1
176
   256
177
   256
178
   256
179
     2
271
     2
272
     2
274
     3
278
    44
284
     8
286
     8
340
D0
371
    -1
372
    -1
  0
DIMSTYLE
105
D2
330
A
100
AcDbSymbolTableRecord
100
AcDbDimStyleTableRecord
  2
Standard - Methode 2a (DIN)$7
 70
     0
 40
0.5
 41
2.5
 42
0.8
 43
5.999999999999999
 44
3.174999999999998
 45
0.00000001
 46
10.0
 77
     1
 78
     8
 79
     2
140
2.5
143
0.03937
146
1.399999976158142
147
0.8
170
     1
171
     3
172
     1
176
   256
177
   256
178
   256
179
     2
271
     2
272
     2
274
     3
278
    44
284
     8
286
     8
340
D0
371
    -1
372
    -1
  0
DIMSTYLE
105
D3
330
A
100
AcDbSymbolTableRecord
100
AcDbDimStyleTableRecord
  2
Standard - Methode 2b (DIN)
 70
     0
 40
0.5
 41
2.5
 42
0.0
 43
5.999999999999999
 44
3.174999999999998
 45
0.00000001
 46
10.0
 77
     1
 78
     8
 79
     2
140
2.5
143
0.03937
146
1.399999976158142
147
0.8
171
     3
172
     1
176
   256
177
   256
178
   256
271
     2
272
     2
274
     3
278
    44
284
     8
286
     8
340
D0
371
    -1
372
    -1
  0
DIMSTYLE
105
D4
330
A
100
AcDbSymbolTableRecord
100
AcDbDimStyleTableRecord
  2
Standard - Methode 2b (DIN)$7
 70
     0
 40
0.5
 41
2.5
 42
0.0
 43
5.999999999999999
 44
3.174999999999998
 45
0.00000001
 46
10.0
 77
     1
 78
     8
 79
     2
140
2.5
143
0.03937
146
1.399999976158142
147
0.8
171
     3
172
     1
176
   256
177
   256
178
   256
271
     2
272
     2
274
     3
278
    44
284
     8
286
     8
340
D0
371
    -1
372
    -1
  0
DIMSTYLE
105
D5
102
{ACAD_REACTORS
330
2DD
330
3C0
330
498
330
570
330
653
330
739
102
}
330
A
100
AcDbSymbolTableRecord
100
AcDbDimStyleTableRecord
  2
Standard (DIN)
 70
     0
 40
0.5
 41
2.5
 42
0.0
 43
6.999999999999999
 44
2.0
 45
0.00000001
 46
10.0
 73
     0
 74
     0
 77
     1
 78
     8
 79
     2
140
2.5
143
0.03937
146
0.6000000238418579
147
0.4
171
     3
172
     1
176
   256
177
   256
178
   256
271
     2
272
     2
274
     3
284
     8
285
     8
340
D0
371
    -1
372
    -1
  0
DIMSTYLE
105
D6
330
A
100
AcDbSymbolTableRecord
100
AcDbDimStyleTableRecord
  2
Standard (DIN)$7
 70
     0
 40
0.5
 41
2.5
 42
0.0
 43
6.999999999999999
 44
2.0
 45
0.00000001
 46
10.0
 73
     0
 74
     0
 77
     1
 78
     8
 79
     2
140
2.5
143
0.03937
146
0.6000000238418579
147
0.4
171
     3
172
     1
176
   256
177
   256
178
   256
271
     2
272
     2
274
     3
284
     8
285
     8
340
D0
371
    -1
372
    -1
  0
DIMSTYLE
105
D7
330
A
100
AcDbSymbolTableRecord
100
AcDbDimStyleTableRecord
  2
Alternativ (ISO)
 70
     0
 40
0.5
 41
2.5
340
55
  0
DIMSTYLE
105
E3
330
A
100
AcDbSymbolTableRecord
100
AcDbDimStyleTableRecord
  2
Bezug (ISO)
 70
     0
 40
0.5
 41
2.5
340
55
  0
DIMSTYLE
105
F2
330
A
100
AcDbSymbolTableRecord
100
AcDbDimStyleTableRecord
  2
Groß (ISO)
 70
     0
 40
0.5
 41
5.0
340
55
  0
ENDTAB
  0
TABLE
  2
BLOCK_RECORD
  5
1
330
0
100
AcDbSymbolTable
 70
    11
  0
BLOCK_RECORD
  5
71
330
1
100
AcDbSymbolTableRecord
100
AcDbBlockTableRecord
  2
*Model_Space
340
74
 70
     0
280
     1
281
     0
  0
BLOCK_RECORD
  5
6D
330
1
100
AcDbSymbolTableRecord
100
AcDbBlockTableRecord
  2
*Paper_Space
340
70
 70
     0
280
     1
281
     0
  0
BLOCK_RECORD
  5
75
330
1
100
AcDbSymbolTableRecord
100
AcDbBlockTableRecord
  2
*Paper_Space0
340
78
 70
     0
280
     1
281
     0
  0
BLOCK_RECORD
  5
D8
330
1
100
AcDbSymbolTableRecord
100
AcDbBlockTableRecord
  2
DatumFilled45
340
0
 70
     0
280
     1
281
     0
  0
BLOCK_RECORD
  5
E4
330
1
100
AcDbSymbolTableRecord
100
AcDbBlockTableRecord
  2
Filled-1
340
0
 70
     0
280
     1
281
     0
  0
BLOCK_RECORD
  5
F3
330
1
100
AcDbSymbolTableRecord
100
AcDbBlockTableRecord
  2
Ränder Standardrahmen
340
0
102
{BLKREFS
331
119
102
}
 70
     0
280
     1
281
     0
  0
BLOCK_RECORD
  5
11A
330
1
100
AcDbSymbolTableRecord
100
AcDbBlockTableRecord
  2
Schriftfelder perma_schriftfeld
340
0
102
{BLKREFS
331
207
102
}
 70
     0
280
     1
281
     0
  0
BLOCK_RECORD
  5
2DF
330
1
100
AcDbSymbolTableRecord
100
AcDbBlockTableRecord
  2
*D5
340
0
 70
     0
280
     1
281
     0
  0
BLOCK_RECORD
  5
3C1
330
1
100
AcDbSymbolTableRecord
100
AcDbBlockTableRecord
  2
*D6
340
0
 70
     0
280
     1
281
     0
  0
BLOCK_RECORD
  5
499
330
1
100
AcDbSymbolTableRecord
100
AcDbBlockTableRecord
  2
*D7
340
0
 70
     0
280
     1
281
     0
  0
BLOCK_RECORD
  5
571
330
1
100
AcDbSymbolTableRecord
100
AcDbBlockTableRecord
  2
*D8
340
0
 70
     0
280
     1
281
     0
  0
BLOCK_RECORD
  5
654
330
1
100
AcDbSymbolTableRecord
100
AcDbBlockTableRecord
  2
*D9
340
0
 70
     0
280
     1
281
     0
  0
BLOCK_RECORD
  5
73A
330
1
100
AcDbSymbolTableRecord
100
AcDbBlockTableRecord
  2
*D10
340
0
 70
     0
280
     1
281
     0
  0
ENDTAB
  0
ENDSEC
  0
SECTION
  2
BLOCKS
  0
BLOCK
  5
72
330
71
100
AcDbEntity
  8
0
100
AcDbBlockBegin
  2
*Model_Space
 70
     0
 10
0.0
 20
0.0
 30
0.0
  3
*Model_Space
  1

  0
ENDBLK
  5
73
330
71
100
AcDbEntity
  8
0
100
AcDbBlockEnd
  0
BLOCK
  5
6E
330
6D
100
AcDbEntity
 67
     1
  8
0
100
AcDbBlockBegin
  2
*Paper_Space
 70
     0
 10
0.0
 20
0.0
 30
0.0
  3
*Paper_Space
  1

  0
ENDBLK
  5
6F
330
6D
100
AcDbEntity
 67
     1
  8
0
100
AcDbBlockEnd
  0
BLOCK
  5
76
330
75
100
AcDbEntity
 67
     1
  8
0
100
AcDbBlockBegin
  2
*Paper_Space0
 70
     0
 10
0.0
 20
0.0
 30
0.0
  3
*Paper_Space0
  1

  0
ENDBLK
  5
77
330
75
100
AcDbEntity
 67
     1
  8
0
100
AcDbBlockEnd
  0
BLOCK
  5
D9
330
D8
100
AcDbEntity
  8
0
100
AcDbBlockBegin
  2
DatumFilled45
 70
     0
 10
0.0
 20
0.0
 30
0.0
  3
DatumFilled45
  1

  0
POLYLINE
  5
DB
330
D8
100
AcDbEntity
  8
0
 62
     0
100
AcDb2dPolyline
 66
     1
 10
0.0
 20
0.0
 30
0.0
 70
   128
  0
VERTEX
  5
DC
330
DB
100
AcDbEntity
  8
0
 62
     0
100
AcDbVertex
100
AcDb2dVertex
 10
0.0
 20
1.0
 30
0.0
  0
VERTEX
  5
DD
330
DB
100
AcDbEntity
  8
0
 62
     0
100
AcDbVertex
100
AcDb2dVertex
 10
0.0
 20
-1.0
 30
0.0
  0
VERTEX
  5
DF
330
DB
100
AcDbEntity
  8
0
 62
     0
100
AcDbVertex
100
AcDb2dVertex
 10
-1.0
 20
0.0
 30
0.0
  0
VERTEX
  5
E0
330
DB
100
AcDbEntity
  8
0
 62
     0
100
AcDbVertex
100
AcDb2dVertex
 10
0.0
 20
1.0
 30
0.0
  0
SEQEND
  5
DE
330
DB
100
AcDbEntity
  8
0
 62
     0
  0
SOLID
  5
E2
330
D8
100
AcDbEntity
  8
0
 62
     0
100
AcDbTrace
 10
0.0
 20
1.0
 30
0.0
 11
0.0
 21
-1.0
 31
0.0
 12
-1.0
 22
0.0
 32
0.0
 13
0.0
 23
1.0
 33
0.0
  0
ENDBLK
  5
DA
330
D8
100
AcDbEntity
  8
0
100
AcDbBlockEnd
  0
BLOCK
  5
E5
330
E4
100
AcDbEntity
  8
0
100
AcDbBlockBegin
  2
Filled-1
 70
     0
 10
0.0
 20
0.0
 30
0.0
  3
Filled-1
  1

  0
LINE
  5
E7
330
E4
100
AcDbEntity
  8
0
 62
     0
100
AcDbLine
 10
-1.0
 20
0.0
 30
0.0
 11
0.0
 21
0.0
 31
0.0
  0
POLYLINE
  5
E8
330
E4
100
AcDbEntity
  8
0
 62
     0
100
AcDb2dPolyline
 66
     1
 10
0.0
 20
0.0
 30
0.0
 70
   128
  0
VERTEX
  5
E9
330
E8
100
AcDbEntity
  8
0
 62
     0
100
AcDbVertex
100
AcDb2dVertex
 10
-1.0
 20
-0.1
 30
0.0
  0
VERTEX
  5
EA
330
E8
100
AcDbEntity
  8
0
 62
     0
100
AcDbVertex
100
AcDb2dVertex
 10
0.0
 20
0.0
 30
0.0
  0
VERTEX
  5
EC
330
E8
100
AcDbEntity
  8
0
 62
     0
100
AcDbVertex
100
AcDb2dVertex
 10
-1.0
 20
0.1
 30
0.0
  0
VERTEX
  5
ED
330
E8
100
AcDbEntity
  8
0
 62
     0
100
AcDbVertex
100
AcDb2dVertex
 10
-1.0
 20
-0.1
 30
0.0
  0
SEQEND
  5
EB
330
E8
100
AcDbEntity
  8
0
 62
     0
  0
SOLID
  5
EE
330
E4
100
AcDbEntity
  8
0
 62
     0
100
AcDbTrace
 10
-1.0
 20
-0.1
 30
0.0
 11
0.0
 21
0.0
 31
0.0
 12
-1.0
 22
0.1
 32
0.0
 13
-1.0
 23
-0.1
 33
0.0
  0
LINE
  5
EF
330
E4
100
AcDbEntity
  8
0
 62
     0
100
AcDbLine
 10
-1.0
 20
-0.1
 30
0.0
 11
0.0
 21
0.0
 31
0.0
  0
LINE
  5
F0
330
E4
100
AcDbEntity
  8
0
 62
     0
100
AcDbLine
 10
0.0
 20
0.0
 30
0.0
 11
-1.0
 21
0.1
 31
0.0
  0
LINE
  5
F1
330
E4
100
AcDbEntity
  8
0
 62
     0
100
AcDbLine
 10
-1.0
 20
0.1
 30
0.0
 11
-1.0
 21
-0.1
 31
0.0
  0
ENDBLK
  5
E6
330
E4
100
AcDbEntity
  8
0
100
AcDbBlockEnd
  0
BLOCK
  5
F4
330
F3
100
AcDbEntity
  8
0
100
AcDbBlockBegin
  2
Ränder Standardrahmen
 70
     0
 10
0.0
 20
0.0
 30
0.0
  3
Ränder Standardrahmen
  1

  0
POLYLINE
  5
F6
330
F3
100
AcDbEntity
  8
Rahmen (ISO)
100
AcDb2dPolyline
 66
     1
 10
0.0
 20
0.0
 30
0.0
 70
   128
  0
VERTEX
  5
F7
330
F6
100
AcDbEntity
  8
Rahmen (ISO)
100
AcDbVertex
100
AcDb2dVertex
 10
10.0
 20
10.0
 30
0.0
  0
VERTEX
  5
F8
330
F6
100
AcDbEntity
  8
Rahmen (ISO)
100
AcDbVertex
100
AcDb2dVertex
 10
10.0
 20
287.0000076293946
 30
0.0
  0
VERTEX
  5
FA
330
F6
100
AcDbEntity
  8
Rahmen (ISO)
100
AcDbVertex
100
AcDb2dVertex
 10
200.0
 20
287.0000076293946
 30
0.0
  0
VERTEX
  5
FB
330
F6
100
AcDbEntity
  8
Rahmen (ISO)
100
AcDbVertex
100
AcDb2dVertex
 10
200.0
 20
10.0
 30
0.0
  0
VERTEX
  5
FC
330
F6
100
AcDbEntity
  8
Rahmen (ISO)
100
AcDbVertex
100
AcDb2dVertex
 10
10.0
 20
10.0
 30
0.0
  0
SEQEND
  5
F9
330
F6
100
AcDbEntity
  8
Rahmen (ISO)
  0
POLYLINE
  5
FD
330
F3
100
AcDbEntity
  8
Rahmen (ISO)
100
AcDb2dPolyline
 66
     1
 10
0.0
 20
0.0
 30
0.0
 70
   128
  0
VERTEX
  5
FE
330
FD
100
AcDbEntity
  8
Rahmen (ISO)
100
AcDbVertex
100
AcDb2dVertex
 10
105.0
 20
0.0
 30
0.0
  0
VERTEX
  5
FF
330
FD
100
AcDbEntity
  8
Rahmen (ISO)
100
AcDbVertex
100
AcDb2dVertex
 10
105.0
 20
10.0
 30
0.0
  0
VERTEX
  5
101
330
FD
100
AcDbEntity
  8
Rahmen (ISO)
100
AcDbVertex
100
AcDb2dVertex
 10
102.1132469177246
 20
5.0
 30
0.0
  0
VERTEX
  5
102
330
FD
100
AcDbEntity
  8
Rahmen (ISO)
100
AcDbVertex
100
AcDb2dVertex
 10
107.8867530822754
 20
5.0
 30
0.0
  0
VERTEX
  5
103
330
FD
100
AcDbEntity
  8
Rahmen (ISO)
100
AcDbVertex
100
AcDb2dVertex
 10
105.0
 20
10.0
 30
0.0
  0
SEQEND
  5
100
330
FD
100
AcDbEntity
  8
Rahmen (ISO)
  0
POLYLINE
  5
104
330
F3
100
AcDbEntity
  8
Rahmen (ISO)
100
AcDb2dPolyline
 66
     1
 10
0.0
 20
0.0
 30
0.0
 70
   128
  0
VERTEX
  5
105
330
104
100
AcDbEntity
  8
Rahmen (ISO)
100
AcDbVertex
100
AcDb2dVertex
 10
105.0
 20
297.0000076293946
 30
0.0
  0
VERTEX
  5
106
330
104
100
AcDbEntity
  8
Rahmen (ISO)
100
AcDbVertex
100
AcDb2dVertex
 10
105.0
 20
287.0000076293946
 30
0.0
  0
VERTEX
  5
108
330
104
100
AcDbEntity
  8
Rahmen (ISO)
100
AcDbVertex
100
AcDb2dVertex
 10
102.1132469177246
 20
292.0000076293945
 30
0.0
  0
VERTEX
  5
109
330
104
100
AcDbEntity
  8
Rahmen (ISO)
100
AcDbVertex
100
AcDb2dVertex
 10
107.8867530822754
 20
292.0000076293945
 30
0.0
  0
VERTEX
  5
10A
330
104
100
AcDbEntity
  8
Rahmen (ISO)
100
AcDbVertex
100
AcDb2dVertex
 10
105.0
 20
287.0000076293946
 30
0.0
  0
SEQEND
  5
107
330
104
100
AcDbEntity
  8
Rahmen (ISO)
  0
POLYLINE
  5
10B
330
F3
100
AcDbEntity
  8
Rahmen (ISO)
100
AcDb2dPolyline
 66
     1
 10
0.0
 20
0.0
 30
0.0
 70
   128
  0
VERTEX
  5
10C
330
10B
100
AcDbEntity
  8
Rahmen (ISO)
100
AcDbVertex
100
AcDb2dVertex
 10
0.0
 20
148.5000038146973
 30
0.0
  0
VERTEX
  5
10D
330
10B
100
AcDbEntity
  8
Rahmen (ISO)
100
AcDbVertex
100
AcDb2dVertex
 10
10.0
 20
148.5000038146973
 30
0.0
  0
VERTEX
  5
10F
330
10B
100
AcDbEntity
  8
Rahmen (ISO)
100
AcDbVertex
100
AcDb2dVertex
 10
5.0
 20
151.3867473602295
 30
0.0
  0
VERTEX
  5
110
330
10B
100
AcDbEntity
  8
Rahmen (ISO)
100
AcDbVertex
100
AcDb2dVertex
 10
5.0
 20
145.6132507324219
 30
0.0
  0
VERTEX
  5
111
330
10B
100
AcDbEntity
  8
Rahmen (ISO)
100
AcDbVertex
100
AcDb2dVertex
 10
10.0
 20
148.5000038146973
 30
0.0
  0
SEQEND
  5
10E
330
10B
100
AcDbEntity
  8
Rahmen (ISO)
  0
POLYLINE
  5
112
330
F3
100
AcDbEntity
  8
Rahmen (ISO)
100
AcDb2dPolyline
 66
     1
 10
0.0
 20
0.0
 30
0.0
 70
   128
  0
VERTEX
  5
113
330
112
100
AcDbEntity
  8
Rahmen (ISO)
100
AcDbVertex
100
AcDb2dVertex
 10
210.0
 20
148.5000038146973
 30
0.0
  0
VERTEX
  5
114
330
112
100
AcDbEntity
  8
Rahmen (ISO)
100
AcDbVertex
100
AcDb2dVertex
 10
200.0
 20
148.5000038146973
 30
0.0
  0
VERTEX
  5
116
330
112
100
AcDbEntity
  8
Rahmen (ISO)
100
AcDbVertex
100
AcDb2dVertex
 10
205.0
 20
151.3867473602295
 30
0.0
  0
VERTEX
  5
117
330
112
100
AcDbEntity
  8
Rahmen (ISO)
100
AcDbVertex
100
AcDb2dVertex
 10
205.0
 20
145.6132507324219
 30
0.0
  0
VERTEX
  5
118
330
112
100
AcDbEntity
  8
Rahmen (ISO)
100
AcDbVertex
100
AcDb2dVertex
 10
200.0
 20
148.5000038146973
 30
0.0
  0
SEQEND
  5
115
330
112
100
AcDbEntity
  8
Rahmen (ISO)
  0
ENDBLK
  5
F5
330
F3
100
AcDbEntity
  8
0
100
AcDbBlockEnd
  0
BLOCK
  5
11B
330
11A
100
AcDbEntity
  8
0
100
AcDbBlockBegin
  2
Schriftfelder perma_schriftfeld
 70
     2
 10
0.0
 20
0.0
 30
0.0
  3
Schriftfelder perma_schriftfeld
  1

  0
HATCH
  5
124
330
11A
100
AcDbEntity
  8
Schraffur (ISO)
 62
   242
420
 13640771
100
AcDbHatch
 10
0.0
 20
0.0
 30
0.0
210
0.0
220
0.0
230
1.0
  2
SOLID
 70
     1
 71
     0
 91
        2
 92
        0
 93
        1
 72
     2
 10
243.4855390241711
 20
143.7748975342685
 40
1.785530546623793
 50
0.0
 51
360.0
 73
     1
 97
        0
 92
        1
 93
        6
 72
     1
 10
241.6008123360682
 20
146.8003798493811
 11
241.6008123360681
 21
146.3290777908515
 72
     2
 10
243.4855390241711
 20
143.7748975342685
 40
3.174276527331191
 50
233.5764263576677
 51
486.4235736423323
 73
     0
 72
     1
 10
241.6008123360681
 20
141.2207172776856
 11
241.6008123360681
 21
138.0215213284808
 72
     1
 10
241.6008123360681
 20
138.0215213284808
 11
240.2120663553608
 21
138.0215213284808
 72
     1
 10
240.2120663553608
 20
138.0215213284808
 11
240.2120663553608
 21
146.8003798493811
 72
     1
 10
240.2120663553608
 20
146.8003798493811
 11
241.6008123360682
 21
146.8003798493811
 97
        0
 75
     0
 76
     1
 98
        1
 10
0.0
 20
0.0
450
        0
451
        0
460
0.0
461
0.0
452
        0
462
0.0
453
        0
470

  0
HATCH
  5
12C
330
11A
100
AcDbEntity
  8
Schraffur (ISO)
 62
   242
420
 13640771
100
AcDbHatch
 10
0.0
 20
0.0
 30
0.0
210
0.0
220
0.0
230
1.0
  2
SOLID
 70
     1
 71
     0
 91
        1
 92
        1
 93
        7
 72
     2
 10
254.2483203746534
 20
146.3043991419856
 40
0.4959807073954986
 50
90.0
 51
180.0
 73
     1
 72
     1
 10
253.7523396672579
 20
146.3043991419856
 11
253.7523396672579
 21
140.6998171484165
 72
     1
 10
253.7523396672579
 20
140.6998171484165
 11
255.1410856479653
 21
140.6998171484165
 72
     1
 10
255.1410856479653
 20
140.6998171484165
 11
255.1410856479653
 21
145.4116338686737
 72
     1
 10
255.1410856479653
 20
145.4116338686737
 11
257.0258123360682
 21
145.4116338686737
 72
     1
 10
257.0258123360682
 20
145.4116338686737
 11
257.0258123360682
 21
146.8003798493811
 72
     1
 10
257.0258123360682
 20
146.8003798493811
 11
254.2483203746534
 21
146.8003798493811
 97
        0
 75
     0
 76
     1
 98
        1
 10
0.0
 20
0.0
450
        0
451
        0
460
0.0
461
0.0
452
        0
462
0.0
453
        0
470

  0
HATCH
  5
13B
330
11A
100
AcDbEntity
  8
Schraffur (ISO)
 62
   242
420
 13640771
100
AcDbHatch
 10
0.0
 20
0.0
 30
0.0
210
0.0
220
0.0
230
1.0
  2
SOLID
 70
     1
 71
     0
 91
        1
 92
        1
 93
       14
 72
     2
 10
263.6223557444282
 20
146.3043991419856
 40
0.4959807073954986
 50
0.0
 51
90.0
 73
     1
 72
     1
 10
263.6223557444282
 20
146.8003798493811
 11
257.8689795386405
 21
146.8003798493811
 72
     2
 10
257.8689795386405
 20
146.3043991419856
 40
0.4959807073954986
 50
90.0
 51
180.0
 73
     1
 72
     1
 10
257.372998831245
 20
146.3043991419856
 11
257.372998831245
 21
140.6998171484165
 72
     1
 10
257.372998831245
 20
140.6998171484165
 11
258.7617448119524
 21
140.6998171484165
 72
     1
 10
258.7617448119524
 20
140.6998171484165
 11
258.7617448119524
 21
145.4116338686737
 72
     1
 10
258.7617448119524
 20
145.4116338686737
 11
260.0512946511807
 21
145.4116338686737
 72
     1
 10
260.0512946511807
 20
145.4116338686737
 11
260.0512946511807
 21
140.6998171484165
 72
     1
 10
260.0512946511807
 20
140.6998171484165
 11
261.4400406318881
 21
140.6998171484165
 72
     1
 10
261.4400406318881
 20
140.6998171484165
 11
261.4400406318881
 21
145.4116338686737
 72
     1
 10
261.4400406318881
 20
145.4116338686737
 11
262.7295904711163
 21
145.4116338686737
 72
     1
 10
262.7295904711163
 20
145.4116338686737
 11
262.7295904711163
 21
140.6998171484164
 72
     1
 10
262.7295904711163
 20
140.6998171484165
 11
264.1183364518238
 21
140.6998171484165
 72
     1
 10
264.1183364518238
 20
140.6998171484165
 11
264.1183364518237
 21
146.3043991419856
 97
        0
 75
     0
 76
     1
 98
        1
 10
0.0
 20
0.0
450
        0
451
        0
460
0.0
461
0.0
452
        0
462
0.0
453
        0
470

  0
HATCH
  5
143
330
11A
100
AcDbEntity
  8
Schraffur (ISO)
 62
   242
420
 13640771
100
AcDbHatch
 10
0.0
 20
0.0
 30
0.0
210
0.0
220
0.0
230
1.0
  2
SOLID
 70
     1
 71
     0
 91
        2
 92
        0
 93
        1
 72
     2
 10
267.6893975450714
 20
143.7748975342685
 40
1.785530546623792
 50
0.0
 51
360.0
 73
     1
 97
        0
 92
        1
 93
        6
 72
     2
 10
267.6893975450714
 20
143.7748975342685
 40
3.174276527331188
 50
51.31781254651136
 51
308.6821874534886
 73
     1
 72
     1
 10
269.6733203746534
 20
141.2969787143252
 11
269.6733203746534
 21
140.6998171484165
 72
     1
 10
269.6733203746534
 20
140.6998171484165
 11
271.0620663553608
 21
140.6998171484165
 72
     1
 10
271.0620663553608
 20
140.6998171484165
 11
271.0620663553608
 21
146.8003798493811
 72
     1
 10
271.0620663553608
 20
146.8003798493811
 11
269.6733203746534
 21
146.8003798493811
 72
     1
 10
269.6733203746534
 20
146.8003798493811
 11
269.6733203746534
 21
146.2528163542119
 97
        0
 75
     0
 76
     1
 98
        1
 10
0.0
 20
0.0
450
        0
451
        0
460
0.0
461
0.0
452
        0
462
0.0
453
        0
470

  0
HATCH
  5
148
330
11A
100
AcDbEntity
  8
Schraffur (ISO)
 62
   242
420
 13640771
100
AcDbHatch
 10
0.0
 20
0.0
 30
0.0
210
0.0
220
0.0
230
1.0
  2
SOLID
 70
     1
 71
     0
 91
        1
 92
        1
 93
        4
 72
     1
 10
242.49357760938
 20
138.0215213284808
 11
271.0620663553608
 21
138.0215213284808
 72
     1
 10
271.0620663553608
 20
138.0215213284808
 11
271.0620663553608
 21
139.4102673091882
 72
     1
 10
271.0620663553608
 20
139.4102673091882
 11
242.49357760938
 21
139.4102673091882
 72
     1
 10
242.49357760938
 20
139.4102673091882
 11
242.49357760938
 21
138.0215213284808
 97
        0
 75
     0
 76
     1
 98
        1
 10
0.0
 20
0.0
450
        0
451
        0
460
0.0
461
0.0
452
        0
462
0.0
453
        0
470

  0
HATCH
  5
14F
330
11A
100
AcDbEntity
  8
Schraffur (ISO)
 62
   242
420
 13640771
100
AcDbHatch
 10
0.0
 20
0.0
 30
0.0
210
0.0
220
0.0
230
1.0
  2
SOLID
 70
     1
 71
     0
 91
        2
 92
        0
 93
        2
 72
     2
 10
250.2055390241711
 20
143.7748975342685
 40
1.78553054662284
 50
22.88538047613576
 51
157.1146195238642
 73
     1
 72
     1
 10
248.5605571144858
 20
144.4692705246211
 11
251.8505209338564
 21
144.4692705246211
 97
        0
 92
        1
 93
        4
 72
     2
 10
250.2055390241711
 20
143.7748975342685
 40
3.17427652733119
 50
349.193077125136
 51
698.9381823983302
 73
     1
 72
     1
 10
253.1677523978849
 20
142.6341419072579
 11
251.5791459302305
 21
142.6341419072579
 72
     2
 10
250.2055390241711
 20
143.7748975342685
 40
1.78553054662492
 50
39.70901655308167
 51
160.5287793655139
 73
     0
 72
     1
 10
248.5221246807924
 20
143.1797206853938
 11
253.3235184966065
 21
143.1797206853938
 97
        0
 75
     0
 76
     1
 98
        1
 10
0.0
 20
0.0
450
        0
451
        0
460
0.0
461
0.0
452
        0
462
0.0
453
        0
470

  0
LINE
  5
150
330
11A
100
AcDbEntity
  8
Titel (ISO)
100
AcDbLine
 10
137.5127883584022
 20
114.0882056155221
 30
0.0
 11
327.5127883584023
 21
114.0882056155221
 31
0.0
  0
LINE
  5
151
330
11A
100
AcDbEntity
  8
Titel (ISO)
100
AcDbLine
 10
327.5127883584023
 20
114.0882056155221
 30
0.0
 11
327.5127883584023
 21
169.3382056155221
 31
0.0
  0
LINE
  5
152
330
11A
100
AcDbEntity
  8
Titel (ISO)
100
AcDbLine
 10
327.5127883584023
 20
169.3382056155221
 30
0.0
 11
137.5127883584022
 21
169.3382056155221
 31
0.0
  0
LINE
  5
153
330
11A
100
AcDbEntity
  8
Titel (ISO)
100
AcDbLine
 10
137.5127883584022
 20
169.3382056155221
 30
0.0
 11
137.5127883584022
 21
114.0882056155221
 31
0.0
  0
LINE
  5
154
330
11A
100
AcDbEntity
  8
Titel (ISO)
100
AcDbLine
 10
192.1127883584023
 20
114.0882056155221
 30
0.0
 11
192.1127883584023
 21
169.3382056155221
 31
0.0
  0
LINE
  5
155
330
11A
100
AcDbEntity
  8
Titel (ISO)
100
AcDbLine
 10
236.3127883584021
 20
114.0882056155221
 30
0.0
 11
236.3127883584021
 21
169.3382056155221
 31
0.0
  0
LINE
  5
156
330
11A
100
AcDbEntity
  8
Titel (ISO)
100
AcDbLine
 10
137.5127883584022
 20
152.3382056155222
 30
0.0
 11
327.5127883584023
 21
152.3382056155222
 31
0.0
  0
LINE
  5
157
330
11A
100
AcDbEntity
  8
Titel (ISO)
100
AcDbLine
 10
192.1127883584023
 20
131.0882056155222
 30
0.0
 11
327.5127883584023
 21
131.0882056155222
 31
0.0
  0
LINE
  5
158
330
11A
100
AcDbEntity
  8
Titel (ISO)
100
AcDbLine
 10
236.3127883584021
 20
162.5882056155222
 30
0.0
 11
327.5127883584023
 21
162.5882056155222
 31
0.0
  0
LINE
  5
159
330
11A
100
AcDbEntity
  8
Titel (ISO)
100
AcDbLine
 10
137.5127883584022
 20
118.3382056155221
 30
0.0
 11
192.1127883584023
 21
118.3382056155221
 31
0.0
  0
LINE
  5
15A
330
11A
100
AcDbEntity
  8
Titel (ISO)
100
AcDbLine
 10
192.1127883584023
 20
118.3382056155221
 30
0.0
 11
236.3127883584021
 21
118.3382056155221
 31
0.0
  0
LINE
  5
15B
330
11A
100
AcDbEntity
  8
Titel (ISO)
100
AcDbLine
 10
236.3127883584021
 20
118.3382056155221
 30
0.0
 11
327.5127883584023
 21
118.3382056155221
 31
0.0
  0
LINE
  5
15C
330
11A
100
AcDbEntity
  8
Titel (ISO)
100
AcDbLine
 10
311.7127883584024
 20
118.3382056155221
 30
0.0
 11
311.7127883584024
 21
131.0882056155222
 31
0.0
  0
LINE
  5
15D
330
11A
100
AcDbEntity
  8
Titel (ISO)
100
AcDbLine
 10
311.7127883584021
 20
124.0197845628906
 30
0.0
 11
327.5127883584021
 21
124.0197845628906
 31
0.0
  0
LINE
  5
15E
330
11A
100
AcDbEntity
  8
Titel (ISO)
100
AcDbLine
 10
192.1127883584023
 20
122.5882056155221
 30
0.0
 11
137.5127883584022
 21
122.5882056155221
 31
0.0
  0
LINE
  5
15F
330
11A
100
AcDbEntity
  8
Titel (ISO)
100
AcDbLine
 10
137.5127883584022
 20
126.8382056155221
 30
0.0
 11
192.1127883584023
 21
126.8382056155221
 31
0.0
  0
LINE
  5
160
330
11A
100
AcDbEntity
  8
Titel (ISO)
100
AcDbLine
 10
137.5127883584022
 20
131.0882056155222
 30
0.0
 11
192.1127883584023
 21
131.0882056155222
 31
0.0
  0
LINE
  5
161
330
11A
100
AcDbEntity
  8
Titel (ISO)
100
AcDbLine
 10
137.5127883584022
 20
135.3382056155222
 30
0.0
 11
192.1127883584023
 21
135.3382056155222
 31
0.0
  0
LINE
  5
162
330
11A
100
AcDbEntity
  8
Titel (ISO)
100
AcDbLine
 10
192.1127883584023
 20
135.3382056155222
 30
0.0
 11
236.3127883584021
 21
135.3382056155222
 31
0.0
  0
LINE
  5
163
330
11A
100
AcDbEntity
  8
Titel (ISO)
100
AcDbLine
 10
137.5127883584022
 20
139.5882056155222
 30
0.0
 11
192.1127883584023
 21
139.5882056155222
 31
0.0
  0
LINE
  5
164
330
11A
100
AcDbEntity
  8
Titel (ISO)
100
AcDbLine
 10
192.1127883584023
 20
139.5882056155222
 30
0.0
 11
236.3127883584021
 21
139.5882056155222
 31
0.0
  0
LINE
  5
165
330
11A
100
AcDbEntity
  8
Titel (ISO)
100
AcDbLine
 10
137.5127883584022
 20
143.8382056155222
 30
0.0
 11
192.1127883584023
 21
143.8382056155222
 31
0.0
  0
LINE
  5
166
330
11A
100
AcDbEntity
  8
Titel (ISO)
100
AcDbLine
 10
192.1127883584023
 20
143.8382056155222
 30
0.0
 11
236.3127883584021
 21
143.8382056155222
 31
0.0
  0
LINE
  5
167
330
11A
100
AcDbEntity
  8
Titel (ISO)
100
AcDbLine
 10
137.5127883584022
 20
148.0882056155222
 30
0.0
 11
192.1127883584023
 21
148.0882056155222
 31
0.0
  0
LINE
  5
168
330
11A
100
AcDbEntity
  8
Titel (ISO)
100
AcDbLine
 10
192.1127883584023
 20
148.0882056155222
 30
0.0
 11
236.3127883584021
 21
148.0882056155222
 31
0.0
  0
LINE
  5
169
330
11A
100
AcDbEntity
  8
Titel (ISO)
100
AcDbLine
 10
145.0127883584023
 20
114.0882056155222
 30
0.0
 11
145.0127883584023
 21
152.3382056155222
 31
0.0
  0
LINE
  5
16A
330
11A
100
AcDbEntity
  8
Titel (ISO)
100
AcDbLine
 10
172.0127883584021
 20
114.0882056155221
 30
0.0
 11
172.0127883584021
 21
152.3382056155222
 31
0.0
  0
LINE
  5
16B
330
11A
100
AcDbEntity
  8
Titel (ISO)
100
AcDbLine
 10
182.6127883584021
 20
114.0882056155221
 30
0.0
 11
182.6127883584021
 21
152.3382056155222
 31
0.0
  0
LINE
  5
16C
330
11A
100
AcDbEntity
  8
Titel (ISO)
100
AcDbLine
 10
202.5127883584021
 20
135.3382056155222
 30
0.0
 11
202.5127883584021
 21
152.3382056155222
 31
0.0
  0
LINE
  5
16D
330
11A
100
AcDbEntity
  8
Titel (ISO)
100
AcDbLine
 10
218.1127883584023
 20
131.0882056155222
 30
0.0
 11
218.1127883584023
 21
152.3382056155222
 31
0.0
  0
LINE
  5
16E
330
11A
100
AcDbEntity
  8
Titel (ISO)
100
AcDbLine
 10
218.1127883584023
 20
152.3382056155222
 30
0.0
 11
218.1127883584023
 21
169.3382056155221
 31
0.0
  0
LINE
  5
16F
330
11A
100
AcDbEntity
  8
Skizziergeometrie (ISO)
 62
   242
420
 13640771
370
     9
100
AcDbLine
 10
241.6008123360682
 20
146.8003798493811
 30
0.0
 11
240.2120663553608
 21
146.8003798493811
 31
0.0
  0
LINE
  5
170
330
11A
100
AcDbEntity
  8
Skizziergeometrie (ISO)
 62
   242
420
 13640771
370
     9
100
AcDbLine
 10
241.6008123360681
 20
146.3290777908515
 30
0.0
 11
241.6008123360682
 21
146.8003798493811
 31
0.0
  0
LINE
  5
171
330
11A
100
AcDbEntity
  8
Skizziergeometrie (ISO)
 62
   242
420
 13640771
370
     9
100
AcDbLine
 10
240.2120663553608
 20
146.8003798493811
 30
0.0
 11
240.2120663553608
 21
138.0215213284808
 31
0.0
  0
CIRCLE
  5
172
330
11A
100
AcDbEntity
  8
Skizziergeometrie (ISO)
 62
   242
420
 13640771
370
     9
100
AcDbCircle
 10
243.4855390241711
 20
143.7748975342685
 30
0.0
 40
1.785530546623793
  0
LINE
  5
173
330
11A
100
AcDbEntity
  8
Skizziergeometrie (ISO)
 62
   242
420
 13640771
370
     9
100
AcDbLine
 10
240.2120663553608
 20
138.0215213284808
 30
0.0
 11
241.6008123360681
 21
138.0215213284808
 31
0.0
  0
LINE
  5
174
330
11A
100
AcDbEntity
  8
Skizziergeometrie (ISO)
 62
   242
420
 13640771
370
     9
100
AcDbLine
 10
241.6008123360681
 20
138.0215213284808
 30
0.0
 11
241.6008123360681
 21
141.2207172776856
 31
0.0
  0
ARC
  5
175
330
11A
100
AcDbEntity
  8
Skizziergeometrie (ISO)
 62
   242
420
 13640771
370
     9
100
AcDbCircle
 10
243.4855390241711
 20
143.7748975342685
 30
0.0
 40
3.17427652733119
100
AcDbArc
 50
233.5764263576676
 51
126.4235736423323
  0
LINE
  5
176
330
11A
100
AcDbEntity
  8
Skizziergeometrie (ISO)
 62
   242
420
 13640771
370
     9
100
AcDbLine
 10
242.49357760938
 20
139.4102673091882
 30
0.0
 11
242.49357760938
 21
138.0215213284808
 31
0.0
  0
ARC
  5
177
330
11A
100
AcDbEntity
  8
Skizziergeometrie (ISO)
 62
   242
420
 13640771
370
     9
100
AcDbCircle
 10
254.2483203746534
 20
146.3043991419856
 30
0.0
 40
0.4959807073954986
100
AcDbArc
 50
90.0
 51
180.0
  0
LINE
  5
178
330
11A
100
AcDbEntity
  8
Skizziergeometrie (ISO)
 62
   242
420
 13640771
370
     9
100
AcDbLine
 10
255.1410856479653
 20
145.4116338686737
 30
0.0
 11
255.1410856479653
 21
140.6998171484165
 31
0.0
  0
LINE
  5
179
330
11A
100
AcDbEntity
  8
Skizziergeometrie (ISO)
 62
   242
420
 13640771
370
     9
100
AcDbLine
 10
253.7523396672579
 20
140.6998171484165
 30
0.0
 11
253.7523396672579
 21
146.3043991419856
 31
0.0
  0
ARC
  5
17A
330
11A
100
AcDbEntity
  8
Skizziergeometrie (ISO)
 62
   242
420
 13640771
370
     9
100
AcDbCircle
 10
250.2055390241711
 20
143.7748975342685
 30
0.0
 40
3.17427652733119
100
AcDbArc
 50
349.1930771251181
 51
338.9381823983282
  0
LINE
  5
17B
330
11A
100
AcDbEntity
  8
Skizziergeometrie (ISO)
 62
   242
420
 13640771
370
     9
100
AcDbLine
 10
255.1410856479653
 20
140.6998171484165
 30
0.0
 11
253.7523396672579
 21
140.6998171484165
 31
0.0
  0
LINE
  5
17C
330
11A
100
AcDbEntity
  8
Skizziergeometrie (ISO)
 62
   242
420
 13640771
370
     9
100
AcDbLine
 10
269.6733203746534
 20
146.2528163542119
 30
0.0
 11
269.6733203746534
 21
146.8003798493811
 31
0.0
  0
LINE
  5
17D
330
11A
100
AcDbEntity
  8
Skizziergeometrie (ISO)
 62
   242
420
 13640771
370
     9
100
AcDbLine
 10
271.0620663553608
 20
146.8003798493811
 30
0.0
 11
271.0620663553608
 21
140.6998171484165
 31
0.0
  0
LINE
  5
17E
330
11A
100
AcDbEntity
  8
Skizziergeometrie (ISO)
 62
   242
420
 13640771
370
     9
100
AcDbLine
 10
271.0620663553608
 20
140.6998171484165
 30
0.0
 11
269.6733203746534
 21
140.6998171484165
 31
0.0
  0
CIRCLE
  5
17F
330
11A
100
AcDbEntity
  8
Skizziergeometrie (ISO)
 62
   242
420
 13640771
370
     9
100
AcDbCircle
 10
267.6893975450714
 20
143.7748975342685
 30
0.0
 40
1.785530546623792
  0
ARC
  5
180
330
11A
100
AcDbEntity
  8
Skizziergeometrie (ISO)
 62
   242
420
 13640771
370
     9
100
AcDbCircle
 10
263.6223557444282
 20
146.3043991419856
 30
0.0
 40
0.4959807073954986
100
AcDbArc
 50
0.0
 51
90.0
  0
LINE
  5
181
330
11A
100
AcDbEntity
  8
Skizziergeometrie (ISO)
 62
   242
420
 13640771
370
     9
100
AcDbLine
 10
264.1183364518237
 20
146.3043991419856
 30
0.0
 11
264.1183364518238
 21
140.6998171484165
 31
0.0
  0
LINE
  5
182
330
11A
100
AcDbEntity
  8
Skizziergeometrie (ISO)
 62
   242
420
 13640771
370
     9
100
AcDbLine
 10
262.7295904711163
 20
145.4116338686737
 30
0.0
 11
262.7295904711163
 21
140.6998171484165
 31
0.0
  0
LINE
  5
183
330
11A
100
AcDbEntity
  8
Skizziergeometrie (ISO)
 62
   242
420
 13640771
370
     9
100
AcDbLine
 10
261.4400406318881
 20
145.4116338686737
 30
0.0
 11
262.7295904711163
 21
145.4116338686737
 31
0.0
  0
LINE
  5
184
330
11A
100
AcDbEntity
  8
Skizziergeometrie (ISO)
 62
   242
420
 13640771
370
     9
100
AcDbLine
 10
261.4400406318881
 20
145.4116338686737
 30
0.0
 11
261.4400406318881
 21
140.6998171484165
 31
0.0
  0
LINE
  5
185
330
11A
100
AcDbEntity
  8
Skizziergeometrie (ISO)
 62
   242
420
 13640771
370
     9
100
AcDbLine
 10
269.6733203746534
 20
140.6998171484165
 30
0.0
 11
269.6733203746534
 21
141.2969787143252
 31
0.0
  0
LINE
  5
186
330
11A
100
AcDbEntity
  8
Skizziergeometrie (ISO)
 62
   242
420
 13640771
370
     9
100
AcDbLine
 10
257.372998831245
 20
146.3043991419856
 30
0.0
 11
257.372998831245
 21
140.6998171484165
 31
0.0
  0
LINE
  5
187
330
11A
100
AcDbEntity
  8
Skizziergeometrie (ISO)
 62
   242
420
 13640771
370
     9
100
AcDbLine
 10
257.372998831245
 20
140.6998171484165
 30
0.0
 11
258.7617448119524
 21
140.6998171484165
 31
0.0
  0
LINE
  5
188
330
11A
100
AcDbEntity
  8
Skizziergeometrie (ISO)
 62
   242
420
 13640771
370
     9
100
AcDbLine
 10
258.7617448119524
 20
140.6998171484165
 30
0.0
 11
258.7617448119524
 21
145.4116338686737
 31
0.0
  0
LINE
  5
189
330
11A
100
AcDbEntity
  8
Skizziergeometrie (ISO)
 62
   242
420
 13640771
370
     9
100
AcDbLine
 10
260.0512946511807
 20
140.6998171484165
 30
0.0
 11
260.0512946511807
 21
145.4116338686737
 31
0.0
  0
LINE
  5
18A
330
11A
100
AcDbEntity
  8
Skizziergeometrie (ISO)
 62
   242
420
 13640771
370
     9
100
AcDbLine
 10
257.8689795386405
 20
146.8003798493811
 30
0.0
 11
263.6223557444282
 21
146.8003798493811
 31
0.0
  0
LINE
  5
18B
330
11A
100
AcDbEntity
  8
Skizziergeometrie (ISO)
 62
   242
420
 13640771
370
     9
100
AcDbLine
 10
260.0512946511807
 20
140.6998171484165
 30
0.0
 11
261.4400406318881
 21
140.6998171484165
 31
0.0
  0
ARC
  5
18C
330
11A
100
AcDbEntity
  8
Skizziergeometrie (ISO)
 62
   242
420
 13640771
370
     9
100
AcDbCircle
 10
257.8689795386405
 20
146.3043991419856
 30
0.0
 40
0.4959807073954986
100
AcDbArc
 50
90.0
 51
180.0
  0
LINE
  5
18D
330
11A
100
AcDbEntity
  8
Skizziergeometrie (ISO)
 62
   242
420
 13640771
370
     9
100
AcDbLine
 10
257.0258123360682
 20
145.4116338686737
 30
0.0
 11
255.1410856479653
 21
145.4116338686737
 31
0.0
  0
LINE
  5
18E
330
11A
100
AcDbEntity
  8
Skizziergeometrie (ISO)
 62
   242
420
 13640771
370
     9
100
AcDbLine
 10
257.0258123360682
 20
146.8003798493811
 30
0.0
 11
257.0258123360682
 21
145.4116338686737
 31
0.0
  0
LINE
  5
18F
330
11A
100
AcDbEntity
  8
Skizziergeometrie (ISO)
 62
   242
420
 13640771
370
     9
100
AcDbLine
 10
254.2483203746534
 20
146.8003798493811
 30
0.0
 11
257.0258123360682
 21
146.8003798493811
 31
0.0
  0
ARC
  5
190
330
11A
100
AcDbEntity
  8
Skizziergeometrie (ISO)
 62
   242
420
 13640771
370
     9
100
AcDbCircle
 10
267.6893975450714
 20
143.7748975342685
 30
0.0
 40
3.17427652733119
100
AcDbArc
 50
51.31781254651136
 51
308.6821874534886
  0
LINE
  5
191
330
11A
100
AcDbEntity
  8
Skizziergeometrie (ISO)
 62
   242
420
 13640771
370
     9
100
AcDbLine
 10
271.0620663553608
 20
139.4102673091882
 30
0.0
 11
271.0620663553608
 21
138.0215213284808
 31
0.0
  0
LINE
  5
192
330
11A
100
AcDbEntity
  8
Skizziergeometrie (ISO)
 62
   242
420
 13640771
370
     9
100
AcDbLine
 10
269.6733203746534
 20
146.8003798493811
 30
0.0
 11
271.0620663553608
 21
146.8003798493811
 31
0.0
  0
LINE
  5
193
330
11A
100
AcDbEntity
  8
Skizziergeometrie (ISO)
 62
   242
420
 13640771
370
     9
100
AcDbLine
 10
262.7295904711163
 20
140.6998171484165
 30
0.0
 11
264.1183364518238
 21
140.6998171484165
 31
0.0
  0
LINE
  5
194
330
11A
100
AcDbEntity
  8
Skizziergeometrie (ISO)
 62
   242
420
 13640771
370
     9
100
AcDbLine
 10
258.7617448119524
 20
145.4116338686737
 30
0.0
 11
260.0512946511807
 21
145.4116338686737
 31
0.0
  0
LINE
  5
195
330
11A
100
AcDbEntity
  8
Skizziergeometrie (ISO)
 62
   242
420
 13640771
370
     9
100
AcDbLine
 10
242.49357760938
 20
139.4102673091882
 30
0.0
 11
271.0620663553608
 21
139.4102673091882
 31
0.0
  0
LINE
  5
196
330
11A
100
AcDbEntity
  8
Skizziergeometrie (ISO)
 62
   242
420
 13640771
370
     9
100
AcDbLine
 10
242.49357760938
 20
138.0215213284808
 30
0.0
 11
271.0620663553608
 21
138.0215213284808
 31
0.0
  0
LINE
  5
197
330
11A
100
AcDbEntity
  8
Skizziergeometrie (ISO)
 62
   242
420
 13640771
370
     9
100
AcDbLine
 10
251.5791459302305
 20
142.6341419072579
 30
0.0
 11
253.1677523978849
 21
142.6341419072579
 31
0.0
  0
LINE
  5
198
330
11A
100
AcDbEntity
  8
Skizziergeometrie (ISO)
 62
   242
420
 13640771
370
     9
100
AcDbLine
 10
248.5605571144858
 20
144.4692705246211
 30
0.0
 11
251.8505209338564
 21
144.4692705246211
 31
0.0
  0
ARC
  5
199
330
11A
100
AcDbEntity
  8
Skizziergeometrie (ISO)
 62
   242
420
 13640771
370
     9
100
AcDbCircle
 10
250.2055390241711
 20
143.7748975342685
 30
0.0
 40
1.78553054662284
100
AcDbArc
 50
22.88538047613576
 51
157.1146195238642
  0
LINE
  5
19A
330
11A
100
AcDbEntity
  8
Skizziergeometrie (ISO)
 62
   242
420
 13640771
370
     9
100
AcDbLine
 10
248.5221246807924
 20
143.1797206853938
 30
0.0
 11
253.3235184966065
 21
143.1797206853938
 31
0.0
  0
ARC
  5
19B
330
11A
100
AcDbEntity
  8
Skizziergeometrie (ISO)
 62
   242
420
 13640771
370
     9
100
AcDbCircle
 10
250.2055390241711
 20
143.7748975342685
 30
0.0
 40
1.78553054662492
100
AcDbArc
 50
199.471220634486
 51
320.2909834469179
  0
ARC
  5
19C
330
11A
100
AcDbEntity
  8
Skizziergeometrie (ISO)
 62
   242
420
 13640771
370
     9
100
AcDbCircle
 10
250.2055390241711
 20
143.7748975342685
 30
0.0
 40
3.17427652733119
100
AcDbArc
 50
349.1930771251363
 51
338.9381823983304
  0
LINE
  5
19D
330
11A
100
AcDbEntity
  8
Titel (ISO)
100
AcDbLine
 10
281.9127883584023
 20
169.3382056155221
 30
0.0
 11
281.9127883584023
 21
162.5882056155222
 31
0.0
  0
LINE
  5
19E
330
11A
100
AcDbEntity
  8
Titel (ISO)
100
AcDbLine
 10
137.5127883584022
 20
152.3382056155222
 30
0.0
 11
145.0127883584023
 21
152.3382056155222
 31
0.0
  0
LINE
  5
19F
330
11A
100
AcDbEntity
  8
Titel (ISO)
100
AcDbLine
 10
145.0127883584023
 20
152.3382056155222
 30
0.0
 11
172.0127883584021
 21
152.3382056155222
 31
0.0
  0
LINE
  5
1A0
330
11A
100
AcDbEntity
  8
Titel (ISO)
100
AcDbLine
 10
172.0127883584021
 20
152.3382056155222
 30
0.0
 11
182.6127883584021
 21
152.3382056155222
 31
0.0
  0
LINE
  5
1A1
330
11A
100
AcDbEntity
  8
Titel (ISO)
100
AcDbLine
 10
182.6127883584021
 20
152.3382056155222
 30
0.0
 11
182.6127883584021
 21
148.0882056155222
 31
0.0
  0
LINE
  5
1A2
330
11A
100
AcDbEntity
  8
Titel (ISO)
100
AcDbLine
 10
192.1127883584023
 20
148.0882056155222
 30
0.0
 11
182.6127883584021
 21
148.0882056155222
 31
0.0
  0
LINE
  5
1A3
330
11A
100
AcDbEntity
  8
Titel (ISO)
100
AcDbLine
 10
236.3127883584021
 20
118.3382056155221
 30
0.0
 11
311.7127883584024
 21
118.3382056155221
 31
0.0
  0
LINE
  5
1A4
330
11A
100
AcDbEntity
  8
Titel (ISO)
100
AcDbLine
 10
202.5127883584021
 20
152.3382056155222
 30
0.0
 11
202.5127883584022
 21
149.0882056155222
 31
0.0
  0
LINE
  5
1A5
330
11A
100
AcDbEntity
  8
Titel (ISO)
100
AcDbLine
 10
202.5127883584022
 20
149.0882056155222
 30
0.0
 11
202.5127883584022
 21
145.4048899025636
 31
0.0
  0
LINE
  5
1A6
330
11A
100
AcDbEntity
  8
Titel (ISO)
100
AcDbLine
 10
202.5127883584022
 20
142.8382056155222
 30
0.0
 11
202.5127883584022
 21
140.5882056155222
 31
0.0
  0
LINE
  5
1A7
330
11A
100
AcDbEntity
  8
Titel (ISO)
100
AcDbLine
 10
137.5127883584022
 20
152.3382056155222
 30
0.0
 11
137.5127883584022
 21
148.0882056155222
 31
0.0
  0
LINE
  5
1A8
330
11A
100
AcDbEntity
  8
Titel (ISO)
100
AcDbLine
 10
137.5127883584022
 20
148.0882056155222
 30
0.0
 11
137.5127883584022
 21
143.8382056155222
 31
0.0
  0
LINE
  5
1A9
330
11A
100
AcDbEntity
  8
Titel (ISO)
100
AcDbLine
 10
137.5127883584022
 20
143.8382056155222
 30
0.0
 11
137.5127883584022
 21
139.5882056155222
 31
0.0
  0
LINE
  5
1AA
330
11A
100
AcDbEntity
  8
Titel (ISO)
100
AcDbLine
 10
137.5127883584022
 20
139.5882056155222
 30
0.0
 11
137.5127883584022
 21
135.3382056155222
 31
0.0
  0
LINE
  5
1AB
330
11A
100
AcDbEntity
  8
Titel (ISO)
100
AcDbLine
 10
137.5127883584022
 20
135.3382056155222
 30
0.0
 11
137.5127883584022
 21
131.0882056155222
 31
0.0
  0
LINE
  5
1AC
330
11A
100
AcDbEntity
  8
Titel (ISO)
100
AcDbLine
 10
137.5127883584022
 20
131.0882056155222
 30
0.0
 11
137.5127883584022
 21
126.8382056155221
 31
0.0
  0
LINE
  5
1AD
330
11A
100
AcDbEntity
  8
Titel (ISO)
100
AcDbLine
 10
137.5127883584022
 20
126.8382056155221
 30
0.0
 11
137.5127883584022
 21
122.5882056155221
 31
0.0
  0
LINE
  5
1AE
330
11A
100
AcDbEntity
  8
Titel (ISO)
100
AcDbLine
 10
137.5127883584022
 20
122.5882056155221
 30
0.0
 11
137.5127883584022
 21
118.3382056155221
 31
0.0
  0
LINE
  5
1AF
330
11A
100
AcDbEntity
  8
Titel (ISO)
100
AcDbLine
 10
137.5127883584022
 20
118.3382056155221
 30
0.0
 11
137.5127883584022
 21
114.0882056155221
 31
0.0
  0
LINE
  5
1B0
330
11A
100
AcDbEntity
  8
Titel (ISO)
100
AcDbLine
 10
236.3127883584021
 20
131.0882056155222
 30
0.0
 11
236.3127883584021
 21
118.3382056155221
 31
0.0
  0
LINE
  5
1B1
330
11A
100
AcDbEntity
  8
Titel (ISO)
100
AcDbLine
 10
192.1127883584023
 20
118.3382056155221
 30
0.0
 11
192.1127883584023
 21
114.0882056155221
 31
0.0
  0
LINE
  5
1B2
330
11A
100
AcDbEntity
  8
Titel (ISO)
100
AcDbLine
 10
236.3127883584021
 20
169.3382056155221
 30
0.0
 11
236.3127883584021
 21
162.5882056155222
 31
0.0
  0
LINE
  5
1B3
330
11A
100
AcDbEntity
  8
Titel (ISO)
100
AcDbLine
 10
218.1127883584023
 20
169.3382056155221
 30
0.0
 11
236.3127883584021
 21
169.3382056155221
 31
0.0
  0
LINE
  5
1B4
330
11A
100
AcDbEntity
  8
Titel (ISO)
100
AcDbLine
 10
192.1127883584023
 20
148.0882056155222
 30
0.0
 11
202.5127883584021
 21
148.0882056155222
 31
0.0
  0
LINE
  5
1B5
330
11A
100
AcDbEntity
  8
Titel (ISO)
100
AcDbLine
 10
192.1127883584023
 20
148.0882056155222
 30
0.0
 11
192.1127883584023
 21
143.8382056155222
 31
0.0
  0
LINE
  5
1B6
330
11A
100
AcDbEntity
  8
Titel (ISO)
100
AcDbLine
 10
202.5127883584021
 20
143.8382056155222
 30
0.0
 11
202.5127883584021
 21
139.5882056155222
 31
0.0
  0
TEXT
  5
1B8
330
11A
100
AcDbEntity
  8
Titel (ISO)
100
AcDbText
 10
239.0576584647692
 20
126.9673826906516
 30
0.0
 40
2.5
  1
Benennung
  7
Textstil54
 72
     1
 11
248.6611714811056
 21
128.2173826906516
 31
0.0
100
AcDbText
 73
     2
  0
MTEXT
  5
1BB
330
11A
100
AcDbEntity
  8
Titel (ISO)
100
AcDbMText
 10
237.7860525909858
 20
117.5074129338006
 30
0.0
 40
2.000000029802321
 41
26.70426845550537
 46
0.0
 71
     1
 72
     1
  1
\fArial|b1|i0;\H2.0000;Zeichnungsnummer
  7
Notiztext (DIN)
 73
     1
 44
1.0
  0
MTEXT
  5
1BD
330
11A
100
AcDbEntity
  8
Titel (ISO)
100
AcDbMText
 10
288.7221859486278
 20
165.963205690028
 30
0.0
 40
2.5
 41
8.898102374642247
 46
0.0
 71
     5
 72
     1
  1
\fArial|b1|i0;\H2.5000;Mat.:
  7
Notiztext (DIN)
 73
     1
 44
1.0
  0
MTEXT
  5
1BE
330
11A
100
AcDbEntity
  8
Titel (ISO)
100
AcDbMText
 10
244.9733924311281
 20
165.9632056155222
 30
0.0
 40
2.5
 41
15.32774329185486
 46
0.0
 71
     5
 72
     1
  1
\fArial|b1|i0;\H2.5000;Maßstab:
  7
Notiztext (DIN)
 73
     1
 44
1.0
  0
MTEXT
  5
1BF
330
11A
100
AcDbEntity
  8
Titel (ISO)
100
AcDbMText
 10
227.2127883584022
 20
160.8850043886321
 30
0.0
 40
1.800000071525573
 41
14.41225028934489
 46
0.0
 71
     5
 72
     1
  1
\fArial|b1|i0;\H1.8000;all\Pdimensions\P[mm]
  7
Notiztext (DIN)
 73
     2
 44
0.9442214965820312
  0
TEXT
  5
1C1
330
11A
100
AcDbEntity
  8
Titel (ISO)
100
AcDbText
 10
205.9662671223584
 20
149.4531826526857
 30
0.0
 40
2.000000029802321
  1
Datum
  7
Textstil55
 72
     1
 11
210.3127883584022
 21
149.193973916073
 31
0.0
100
AcDbText
 73
     1
  0
TEXT
  5
1C2
330
11A
100
AcDbEntity
  8
Titel (ISO)
100
AcDbText
 10
223.4078769562283
 20
149.4531826526857
 30
0.0
 40
2.000000029802321
  1
Name
  7
Textstil55
 72
     1
 11
227.2127883584022
 21
149.193973916073
 31
0.0
100
AcDbText
 73
     1
  0
TEXT
  5
1C4
330
11A
100
AcDbEntity
  8
Titel (ISO)
100
AcDbText
 10
192.9291407012697
 20
145.3632056289332
 30
0.0
 40
1.199999973177909
  1
Gezeichnet
  7
Textstil58
 72
     1
 11
197.4009005182066
 21
145.9632056155222
 31
0.0
100
AcDbText
 73
     2
  0
TEXT
  5
1C5
330
11A
100
AcDbEntity
  8
Titel (ISO)
100
AcDbText
 10
192.8708276292089
 20
141.0861068043681
 30
0.0
 40
1.199999973177909
  1
Kontrolliert
  7
Textstil58
 11
192.8708276292089
 21
140.9305815681942
 31
0.0
100
AcDbText
 73
     1
  0
TEXT
  5
1C6
330
11A
100
AcDbEntity
  8
Titel (ISO)
100
AcDbText
 10
192.8851600792527
 20
136.8229567039743
 30
0.0
 40
1.199999973177909
  1
Norm
  7
Textstil58
 11
192.8851600792527
 21
136.6674314678004
 31
0.0
100
AcDbText
 73
     1
  0
TEXT
  5
1C7
330
11A
100
AcDbEntity
  8
Titel (ISO)
100
AcDbText
 10
193.8939368309821
 20
126.9673826906517
 30
0.0
 40
2.5
  1
Projekt
  7
Textstil54
 72
     1
 11
199.8139573292884
 21
128.2173826906517
 31
0.0
100
AcDbText
 73
     2
  0
MTEXT
  5
1C8
330
11A
100
AcDbEntity
  8
Titel (ISO)
100
AcDbMText
 10
193.2211565676084
 20
117.2459800067279
 30
0.0
 40
2.000000029802321
 41
9.780488014221331
 46
0.0
 71
     1
 72
     1
  1
\fArial|b1|i0;\H2.0000;Ers. für
  7
Notiztext (DIN)
 73
     1
 44
1.0
  0
MTEXT
  5
1C9
330
11A
100
AcDbEntity
  8
Titel (ISO)
100
AcDbMText
 10
139.0940728591497
 20
167.9495696034075
 30
0.0
 40
2.5
 41
25.80983161926269
 46
0.0
 71
     1
 72
     1
  1
\fArial|b1|i0;\H2.5000;Artikelnummer:
  7
Notiztext (DIN)
 73
     1
 44
1.0
  0
TEXT
  5
1CB
330
11A
100
AcDbEntity
  8
Titel (ISO)
100
AcDbText
 10
184.5091047358997
 20
115.4632055857198
 30
0.0
 40
1.500000059604644
  1
Name
  7
Textstil61
 72
     1
 11
187.3627883584022
 21
116.2132056155221
 31
0.0
100
AcDbText
 73
     2
  0
TEXT
  5
1CC
330
11A
100
AcDbEntity
  8
Titel (ISO)
100
AcDbText
 10
174.0528973504091
 20
115.4632055857198
 30
0.0
 40
1.500000059604644
  1
Datum
  7
Textstil61
 72
     1
 11
177.3127883584022
 21
116.2132056155221
 31
0.0
100
AcDbText
 73
     2
  0
TEXT
  5
1CD
330
11A
100
AcDbEntity
  8
Titel (ISO)
100
AcDbText
 10
152.3429381455341
 20
115.4632055857198
 30
0.0
 40
1.500000059604644
  1
Änderungen
  7
Textstil61
 72
     1
 11
158.5127883584023
 21
116.2132056155221
 31
0.0
100
AcDbText
 73
     2
  0
TEXT
  5
1CE
330
11A
100
AcDbEntity
  8
Titel (ISO)
100
AcDbText
 10
138.060707721392
 20
115.4632055857198
 30
0.0
 40
1.500000059604644
  1
Status
  7
Textstil61
 72
     1
 11
141.2627883584022
 21
116.2132056155221
 31
0.0
100
AcDbText
 73
     2
  0
MTEXT
  5
1CF
330
11A
100
AcDbEntity
  8
Titel (ISO)
100
AcDbMText
 10
205.1127883584022
 20
160.5440745190697
 30
0.0
 40
1.800000071525573
 41
24.15695313319206
 46
0.0
 71
     5
 72
     1
  1
\fArial|b1|i0;\H1.8000;Allgemeintoleranz/\Pgeneral tolerance\PDIN ISO 2768-mK
  7
Notiztext (DIN)
 73
     2
 44
0.9442214965820312
  0
MTEXT
  5
1D0
102
{ACAD_XDICTIONARY
360
832
102
}
330
11A
100
AcDbEntity
  8
Titel (ISO)
100
AcDbMText
 10
274.2620663553609
 20
145.2581066594439
 30
0.0
 40
2.5
 41
52.19999999999998
 46
0.0
 71
     1
 72
     1
  1
{\fArial|b1|i0|c0|p34;\H0.8x;perma-tec\H0.5x; \fArial|b0|i0|c0|p34;\H1.4986x;GmbH & Co. KG\P\H0.96757x;Hammelburger Str.21                      Tel. : +49 9704 609-0\H1.5316x; \H0.65293x;\P97717 EUERDORF / GERMANY    Fax : +49 9704 609-50\H1.3341x; }
  7
Notiztext (DIN)
 73
     1
 44
0.6820859909057618
  0
MTEXT
  5
1D1
330
11A
100
AcDbEntity
  8
Titel (ISO)
 62
     1
420
 16711680
100
AcDbMText
 10
139.5127883584022
 20
194.2450045593993
 30
0.0
 40
2.5
 41
56.20807647705078
 46
0.0
 71
     1
 72
     1
  1
\fArial|b1|i0;\H2.5000;spanfrei, gratfrei, \Ppartikelfrei (größer 0,2 mm)\Pkeine scharfen Kanten/\P\fArial|b1|i1;\H2.5000;free of burrs and swarfs\Pno particles (greater than 0.2 mm)\Pno sharp edges
  7
Notiztext (DIN)
 73
     2
 44
0.9442214965820312
  0
MTEXT
  5
1D2
330
11A
100
AcDbEntity
  8
Titel (ISO)
 62
     1
420
 16711680
100
AcDbMText
 10
232.5127883584023
 20
227.9419352211969
 30
0.0
 40
3.000000119209288
 41
132.5099182128906
 46
0.0
 71
     2
 72
     1
  1
\fArial|b1|i0;\H3.0000;Bauteil kann in Details geringfügig von der Zeichnung abweichen./\P\fArial|b1|i1;\H3.0000;Part may be slightly different than shown in the drawing.
  7
Notiztext (DIN)
 73
     2
 44
0.9442214965820312
  0
ATTDEF
  5
1D3
102
{ACAD_XDICTIONARY
360
834
102
}
330
11A
100
AcDbEntity
  8
Titel (ISO)
100
AcDbText
 10
317.4151665002902
 20
119.9107299359875
 30
0.0
 40
2.5
  1
A4
  7
Notiztext (DIN)
100
AcDbAttributeDefinition
280
     0
  3
Blattgröße
  2
Blattgröße_001
 70
     0
280
     0
  0
ATTDEF
  5
1D6
102
{ACAD_XDICTIONARY
360
837
102
}
330
11A
100
AcDbEntity
  8
Titel (ISO)
100
AcDbText
 10
318.5706223294316
 20
125.0802934428787
 30
0.0
 40
5.0
  1
1
  7
Textstil29
100
AcDbAttributeDefinition
280
     0
  3
Blattnummer
  2
Blattnummer_001
 70
     0
280
     0
  0
ATTDEF
  5
1D8
102
{ACAD_XDICTIONARY
360
83A
102
}
330
11A
100
AcDbEntity
  8
Titel (ISO)
100
AcDbText
 10
140.3247255598686
 20
119.5632055745206
 30
0.0
 40
1.800000071525573
  1
B
  7
Textstil57
100
AcDbAttributeDefinition
280
     0
  3
Status1
  2
Status1_001
 70
     0
280
     0
  0
ATTDEF
  5
1D9
102
{ACAD_XDICTIONARY
360
83D
102
}
330
11A
100
AcDbEntity
  8
Titel (ISO)
100
AcDbText
 10
147.4629753609583
 20
119.8124552448117
 30
0.0
 40
1.800000071525573
  1
Artikelnr. geändert
  7
Textstil57
100
AcDbAttributeDefinition
280
     0
  3
Änderungen1
  2
Änderungen1_001
 70
     0
280
     0
  0
ATTDEF
  5
1DA
102
{ACAD_XDICTIONARY
360
840
102
}
330
11A
100
AcDbEntity
  8
Titel (ISO)
100
AcDbText
 10
172.4333884089617
 20
119.5748699679578
 30
0.0
 40
1.800000071525573
  1
30.12.10
  7
Textstil57
100
AcDbAttributeDefinition
280
     0
  3
Datum1
  2
Datum1_001
 70
     0
280
     0
  0
ATTDEF
  5
1DB
102
{ACAD_XDICTIONARY
360
843
102
}
330
11A
100
AcDbEntity
  8
Titel (ISO)
100
AcDbText
 10
183.6909600874404
 20
119.5779395451782
 30
0.0
 40
1.800000071525573
  1
Bader
  7
Textstil57
100
AcDbAttributeDefinition
280
     0
  3
Name1
  2
Name1_001
 70
     0
280
     0
  0
ATTDEF
  5
1DC
102
{ACAD_XDICTIONARY
360
846
102
}
330
11A
100
AcDbEntity
  8
Titel (ISO)
100
AcDbText
 10
140.3597187401804
 20
123.8132055745206
 30
0.0
 40
1.800000071525573
  1
C
  7
Textstil57
100
AcDbAttributeDefinition
280
     0
  3
Status2
  2
Status2_001
 70
     0
280
     0
  0
ATTDEF
  5
1DD
102
{ACAD_XDICTIONARY
360
849
102
}
330
11A
100
AcDbEntity
  8
Titel (ISO)
100
AcDbText
 10
151.209087400652
 20
124.0624552448116
 30
0.0
 40
1.800000071525573
  1
Text ergänzt
  7
Textstil57
100
AcDbAttributeDefinition
280
     0
  3
Änderungen2
  2
Änderungen2_001
 70
     0
280
     0
  0
ATTDEF
  5
1DE
102
{ACAD_XDICTIONARY
360
84C
102
}
330
11A
100
AcDbEntity
  8
Titel (ISO)
100
AcDbText
 10
172.4413693097345
 20
123.8248699679578
 30
0.0
 40
1.800000071525573
  1
21.11.13
  7
Textstil57
100
AcDbAttributeDefinition
280
     0
  3
Datum2
  2
Datum2_001
 70
     0
280
     0
  0
ATTDEF
  5
1DF
102
{ACAD_XDICTIONARY
360
84F
102
}
330
11A
100
AcDbEntity
  8
Titel (ISO)
100
AcDbText
 10
183.6909600874405
 20
123.8279395451782
 30
0.0
 40
1.800000071525573
  1
Bader
  7
Textstil57
100
AcDbAttributeDefinition
280
     0
  3
Name2
  2
Name2_001
 70
     0
280
     0
  0
ATTDEF
  5
1E0
102
{ACAD_XDICTIONARY
360
852
102
}
330
11A
100
AcDbEntity
  8
Titel (ISO)
100
AcDbText
 10
140.3597187401804
 20
128.0632055745207
 30
0.0
 40
1.800000071525573
  1
C
  7
Textstil57
100
AcDbAttributeDefinition
280
     0
  3
Status3
  2
Status3_001
 70
     0
280
     0
  0
ATTDEF
  5
1E1
102
{ACAD_XDICTIONARY
360
855
102
}
330
11A
100
AcDbEntity
  8
Titel (ISO)
100
AcDbText
 10
151.5418295713361
 20
128.0638194899647
 30
0.0
 40
1.800000071525573
  1
SW entfernt
  7
Textstil57
100
AcDbAttributeDefinition
280
     0
  3
Änderungen3
  2
Änderungen3_001
 70
     0
280
     0
  0
ATTDEF
  5
1E2
102
{ACAD_XDICTIONARY
360
858
102
}
330
11A
100
AcDbEntity
  8
Titel (ISO)
100
AcDbText
 10
172.4413693097345
 20
128.074869967958
 30
0.0
 40
1.800000071525573
  1
21.11.13
  7
Textstil57
100
AcDbAttributeDefinition
280
     0
  3
Datum3
  2
Datum3_001
 70
     0
280
     0
  0
ATTDEF
  5
1E3
102
{ACAD_XDICTIONARY
360
85B
102
}
330
11A
100
AcDbEntity
  8
Titel (ISO)
100
AcDbText
 10
183.6909600874405
 20
128.0779395451783
 30
0.0
 40
1.800000071525573
  1
Bader
  7
Textstil57
100
AcDbAttributeDefinition
280
     0
  3
Name3
  2
Name3_001
 70
     0
280
     0
  0
ATTDEF
  5
1E4
102
{ACAD_XDICTIONARY
360
85E
102
}
330
11A
100
AcDbEntity
  8
Titel (ISO)
100
AcDbText
 10
140.3597187401804
 20
132.3132055745207
 30
0.0
 40
1.800000071525573
  1
C
  7
Textstil57
100
AcDbAttributeDefinition
280
     0
  3
Status4
  2
Status4_001
 70
     0
280
     0
  0
ATTDEF
  5
1E5
102
{ACAD_XDICTIONARY
360
861
102
}
330
11A
100
AcDbEntity
  8
Titel (ISO)
100
AcDbText
 10
146.4948307056654
 20
132.3125916590766
 30
0.0
 40
1.800000071525573
  1
Maße als max. Maße
  7
Textstil57
100
AcDbAttributeDefinition
280
     0
  3
Änderungen4
  2
Änderungen4_001
 70
     0
280
     0
  0
ATTDEF
  5
1E6
102
{ACAD_XDICTIONARY
360
864
102
}
330
11A
100
AcDbEntity
  8
Titel (ISO)
100
AcDbText
 10
172.4413693097345
 20
132.324869967958
 30
0.0
 40
1.800000071525573
  1
21.11.13
  7
Textstil57
100
AcDbAttributeDefinition
280
     0
  3
Datum4
  2
Datum4_001
 70
     0
280
     0
  0
ATTDEF
  5
1E7
102
{ACAD_XDICTIONARY
360
867
102
}
330
11A
100
AcDbEntity
  8
Titel (ISO)
100
AcDbText
 10
183.6909600874404
 20
132.3279395451783
 30
0.0
 40
1.800000071525573
  1
Bader
  7
Textstil57
100
AcDbAttributeDefinition
280
     0
  3
Name4
  2
Name4_001
 70
     0
280
     0
  0
ATTDEF
  5
1E8
102
{ACAD_XDICTIONARY
360
86A
102
}
330
11A
100
AcDbEntity
  8
Titel (ISO)
100
AcDbText
 10
140.3597187401804
 20
136.5632055745207
 30
0.0
 40
1.800000071525573
  1
C
  7
Textstil57
100
AcDbAttributeDefinition
280
     0
  3
Status5
  2
Status5_001
 70
     0
280
     0
  0
ATTDEF
  5
1E9
102
{ACAD_XDICTIONARY
360
86D
102
}
330
11A
100
AcDbEntity
  8
Titel (ISO)
100
AcDbText
 10
148.587054539044
 20
136.5779395451783
 30
0.0
 40
1.800000071525573
  1
Art.Nr. neu hinzu
  7
Textstil57
100
AcDbAttributeDefinition
280
     0
  3
Änderungen5
  2
Änderungen5_001
 70
     0
280
     0
  0
ATTDEF
  5
1EA
102
{ACAD_XDICTIONARY
360
870
102
}
330
11A
100
AcDbEntity
  8
Titel (ISO)
100
AcDbText
 10
172.4413693097345
 20
136.574869967958
 30
0.0
 40
1.800000071525573
  1
21.11.13
  7
Textstil57
100
AcDbAttributeDefinition
280
     0
  3
Datum5
  2
Datum5_001
 70
     0
280
     0
  0
ATTDEF
  5
1EB
102
{ACAD_XDICTIONARY
360
873
102
}
330
11A
100
AcDbEntity
  8
Titel (ISO)
100
AcDbText
 10
183.6909600874404
 20
136.5779395451783
 30
0.0
 40
1.800000071525573
  1
Bader
  7
Textstil57
100
AcDbAttributeDefinition
280
     0
  3
Name5
  2
Name5_001
 70
     0
280
     0
  0
ATTDEF
  5
1EC
102
{ACAD_XDICTIONARY
360
876
102
}
330
11A
100
AcDbEntity
  8
Titel (ISO)
100
AcDbText
 10
141.2627883584022
 20
140.8132055797594
 30
0.0
 40
1.800000071525573
  1

  7
Textstil57
 72
     1
 11
141.2627883584022
 21
141.7132056155222
 31
0.0
100
AcDbAttributeDefinition
280
     0
  3
Status6
  2
Status6
 70
     0
 74
     2
280
     0
  0
ATTDEF
  5
1ED
102
{ACAD_XDICTIONARY
360
879
102
}
330
11A
100
AcDbEntity
  8
Titel (ISO)
100
AcDbText
 10
158.6264137958634
 20
140.8132055797594
 30
0.0
 40
1.800000071525573
  1

  7
Textstil57
 72
     1
 11
158.6264137958634
 21
141.7132056155222
 31
0.0
100
AcDbAttributeDefinition
280
     0
  3
Änderungen6
  2
Änderungen6
 70
     0
 74
     2
280
     0
  0
ATTDEF
  5
1EE
102
{ACAD_XDICTIONARY
360
87C
102
}
330
11A
100
AcDbEntity
  8
Titel (ISO)
100
AcDbText
 10
177.3127883584022
 20
140.8132055797594
 30
0.0
 40
1.800000071525573
  1

  7
Textstil57
 72
     1
 11
177.3127883584022
 21
141.7132056155222
 31
0.0
100
AcDbAttributeDefinition
280
     0
  3
Datum6
  2
Datum6
 70
     0
 74
     2
280
     0
  0
ATTDEF
  5
1EF
102
{ACAD_XDICTIONARY
360
87F
102
}
330
11A
100
AcDbEntity
  8
Titel (ISO)
100
AcDbText
 10
187.3627883584022
 20
140.8132055797594
 30
0.0
 40
1.800000071525573
  1

  7
Textstil57
 72
     1
 11
187.3627883584022
 21
141.7132056155222
 31
0.0
100
AcDbAttributeDefinition
280
     0
  3
Name6
  2
Name6
 70
     0
 74
     2
280
     0
  0
ATTDEF
  5
1F0
102
{ACAD_XDICTIONARY
360
882
102
}
330
11A
100
AcDbEntity
  8
Titel (ISO)
100
AcDbText
 10
141.2627883584022
 20
145.0632055797594
 30
0.0
 40
1.800000071525573
  1

  7
Textstil57
 72
     1
 11
141.2627883584022
 21
145.9632056155222
 31
0.0
100
AcDbAttributeDefinition
280
     0
  3
Status7
  2
Status7
 70
     0
 74
     2
280
     0
  0
ATTDEF
  5
1F1
102
{ACAD_XDICTIONARY
360
885
102
}
330
11A
100
AcDbEntity
  8
Titel (ISO)
100
AcDbText
 10
158.6264137958634
 20
145.0632055797594
 30
0.0
 40
1.800000071525573
  1

  7
Textstil57
 72
     1
 11
158.6264137958634
 21
145.9632056155222
 31
0.0
100
AcDbAttributeDefinition
280
     0
  3
Änderungen7
  2
Änderungen7
 70
     0
 74
     2
280
     0
  0
ATTDEF
  5
1F2
102
{ACAD_XDICTIONARY
360
888
102
}
330
11A
100
AcDbEntity
  8
Titel (ISO)
100
AcDbText
 10
177.3127883584022
 20
145.0632055797594
 30
0.0
 40
1.800000071525573
  1

  7
Textstil57
 72
     1
 11
177.3127883584022
 21
145.9632056155222
 31
0.0
100
AcDbAttributeDefinition
280
     0
  3
Datum7
  2
Datum7
 70
     0
 74
     2
280
     0
  0
ATTDEF
  5
1F3
102
{ACAD_XDICTIONARY
360
88B
102
}
330
11A
100
AcDbEntity
  8
Titel (ISO)
100
AcDbText
 10
187.3627883584022
 20
145.0632055797594
 30
0.0
 40
1.800000071525573
  1

  7
Textstil57
 72
     1
 11
187.3627883584022
 21
145.9632056155222
 31
0.0
100
AcDbAttributeDefinition
280
     0
  3
Name7
  2
Name7
 70
     0
 74
     2
280
     0
  0
ATTDEF
  5
1F4
102
{ACAD_XDICTIONARY
360
88E
102
}
330
11A
100
AcDbEntity
  8
Titel (ISO)
100
AcDbText
 10
141.2627883584022
 20
149.3132055797594
 30
0.0
 40
1.800000071525573
  1

  7
Textstil57
 72
     1
 11
141.2627883584022
 21
150.2132056155222
 31
0.0
100
AcDbAttributeDefinition
280
     0
  3
Status8
  2
Status8
 70
     0
 74
     2
280
     0
  0
ATTDEF
  5
1F5
102
{ACAD_XDICTIONARY
360
891
102
}
330
11A
100
AcDbEntity
  8
Titel (ISO)
100
AcDbText
 10
158.6264137958634
 20
149.3132055797594
 30
0.0
 40
1.800000071525573
  1

  7
Textstil57
 72
     1
 11
158.6264137958634
 21
150.2132056155222
 31
0.0
100
AcDbAttributeDefinition
280
     0
  3
Änderungen8
  2
Änderungen8
 70
     0
 74
     2
280
     0
  0
ATTDEF
  5
1F6
102
{ACAD_XDICTIONARY
360
894
102
}
330
11A
100
AcDbEntity
  8
Titel (ISO)
100
AcDbText
 10
177.3127883584022
 20
149.3132055797594
 30
0.0
 40
1.800000071525573
  1

  7
Textstil57
 72
     1
 11
177.3127883584022
 21
150.2132056155222
 31
0.0
100
AcDbAttributeDefinition
280
     0
  3
Datum8
  2
Datum8
 70
     0
 74
     2
280
     0
  0
ATTDEF
  5
1F7
102
{ACAD_XDICTIONARY
360
897
102
}
330
11A
100
AcDbEntity
  8
Titel (ISO)
100
AcDbText
 10
187.3627883584022
 20
149.3132055797594
 30
0.0
 40
1.800000071525573
  1

  7
Textstil57
 72
     1
 11
187.3627883584022
 21
150.2132056155222
 31
0.0
100
AcDbAttributeDefinition
280
     0
  3
Name8
  2
Name8
 70
     0
 74
     2
280
     0
  0
ATTDEF
  5
1F9
102
{ACAD_XDICTIONARY
360
89A
102
}
330
11A
100
AcDbEntity
  8
Titel (ISO)
100
AcDbText
 10
156.8590026358246
 20
158.8608864318713
 30
0.0
 40
3.499999940395355
  1
101551
  7
Textstil59
100
AcDbAttributeDefinition
280
     0
  3
Artikelnummer neu
  2
Artikelnummer_neu_001
 70
     0
280
     0
  0
ATTDEF
  5
1FA
102
{ACAD_XDICTIONARY
360
89D
102
}
330
11A
100
AcDbEntity
  8
Titel (ISO)
100
AcDbText
 10
154.9091389146708
 20
153.7955725857152
 30
0.0
 40
2.5
  1
(27.005.087)
  7
Textstil54
100
AcDbAttributeDefinition
280
     0
  3
Artikelnummer alt
  2
Artikelnummer_alt_001
 70
     0
280
     0
  0
ATTDEF
  5
1FC
102
{ACAD_XDICTIONARY
360
8A0
102
}
330
11A
100
AcDbEntity
  8
Titel (ISO)
100
AcDbText
 10
296.8571742036791
 20
164.9042014745075
 30
0.0
 40
3.000000119209288
  1
Messing vern.
  7
Textstil56
100
AcDbAttributeDefinition
280
     0
  3
Material
  2
Material_001
 70
     0
280
     0
  0
ATTDEF
  5
1FD
102
{ACAD_XDICTIONARY
360
8A3
102
}
330
11A
100
AcDbEntity
  8
Titel (ISO)
100
AcDbText
 10
263.5574491238587
 20
164.4570663927457
 30
0.0
 40
3.000000119209288
  1
2:1
  7
Textstil56
100
AcDbAttributeDefinition
280
     0
  3
Maßstab
  2
Maßstab_001
 70
     0
280
     0
  0
ATTDEF
  5
1FE
102
{ACAD_XDICTIONARY
360
8A6
102
}
330
11A
100
AcDbEntity
  8
Titel (ISO)
100
AcDbText
 10
205.4413693097346
 20
145.074869967958
 30
0.0
 40
1.800000071525573
  1
21.11.13
  7
Textstil57
100
AcDbAttributeDefinition
280
     0
  3
Gezeichnet Datum
  2
Gezeichnet_Datum_001
 70
     0
280
     0
  0
ATTDEF
  5
1FF
102
{ACAD_XDICTIONARY
360
8A9
102
}
330
11A
100
AcDbEntity
  8
Titel (ISO)
100
AcDbText
 10
223.5409600874405
 20
145.0779395451783
 30
0.0
 40
1.800000071525573
  1
Bader
  7
Textstil57
100
AcDbAttributeDefinition
280
     0
  3
Gezeichnet Name
  2
Gezeichnet_Name_001
 70
     0
280
     0
  0
ATTDEF
  5
201
102
{ACAD_XDICTIONARY
360
8AC
102
}
330
11A
100
AcDbEntity
  8
Titel (ISO)
100
AcDbText
 10
274.0127883584021
 20
120.737839611287
 30
0.0
 40
4.000000059604643
  1

  7
Textstil53
 72
     1
 11
274.0127883584021
 21
122.7378396410893
 31
0.0
100
AcDbAttributeDefinition
280
     0
  3
Benennung
  2
Benennung
 70
     0
 74
     2
280
     0
  0
ATTDEF
  5
202
102
{ACAD_XDICTIONARY
360
8AF
102
}
330
11A
100
AcDbEntity
  8
Titel (ISO)
100
AcDbText
 10
267.5016718628334
 20
114.9632056082461
 30
0.0
 40
2.5
  1
AN GEA 25 C
  7
Textstil54
100
AcDbAttributeDefinition
280
     0
  3
Zeichnungsnummer
  2
Zeichnungsnummer_001
 70
     0
280
     0
  0
ATTDEF
  5
203
102
{ACAD_XDICTIONARY
360
8B2
102
}
330
11A
100
AcDbEntity
  8
Titel (ISO)
100
AcDbText
 10
209.2797017957903
 20
114.9632056082461
 30
0.0
 40
2.5
  1
AN GEA 25 B
  7
Textstil54
100
AcDbAttributeDefinition
280
     0
  3
Ers. für
  2
Ers._für_001
 70
     0
280
     0
  0
ATTDEF
  5
204
102
{ACAD_XDICTIONARY
360
8B5
102
}
330
11A
100
AcDbEntity
  8
Titel (ISO)
100
AcDbText
 10
194.5961440228488
 20
120.770581755849
 30
0.0
 40
4.000000059604643
  1
Anschlussteile
  7
Textstil53
100
AcDbAttributeDefinition
280
     0
  3
Projekt
  2
Projekt_001
 70
     0
280
     0
  0
ATTDEF
  5
205
102
{ACAD_XDICTIONARY
360
8B8
102
}
330
11A
100
AcDbEntity
  8
Titel (ISO)
100
AcDbText
 10
205.4413693097347
 20
140.824869967958
 30
0.0
 40
1.800000071525573
  1
21.11.13
  7
Textstil57
100
AcDbAttributeDefinition
280
     0
  3
Kontroll Datum
  2
Kontroll_Datum_001
 70
     0
280
     0
  0
ATTDEF
  5
206
102
{ACAD_XDICTIONARY
360
8BB
102
}
330
11A
100
AcDbEntity
  8
Titel (ISO)
100
AcDbText
 10
219.8660622392585
 20
140.8279395451783
 30
0.0
 40
1.800000071525573
  1
Hildenbrand
  7
Textstil57
100
AcDbAttributeDefinition
280
     0
  3
Kontroll  Name
  2
Kontroll__Name_001
 70
     0
280
     0
  0
ENDBLK
  5
11C
330
11A
100
AcDbEntity
  8
0
100
AcDbBlockEnd
  0
BLOCK
  5
2E0
330
2DF
100
AcDbEntity
  8
0
100
AcDbBlockBegin
  2
*D5
 70
     1
 10
0.0
 20
0.0
 30
0.0
  3
*D5
  1

  0
LINE
  5
3B7
330
2DF
100
AcDbEntity
  8
Bemaßung (ISO)
440
 16777216
100
AcDbLine
 10
30.07980832252961
 20
96.37386415569679
 30
0.0
 11
30.07980832252961
 21
90.37386415569677
 31
0.0
  0
LINE
  5
3B8
330
2DF
100
AcDbEntity
  8
Bemaßung (ISO)
440
 16777216
100
AcDbLine
 10
43.23680832252961
 20
96.37386415569679
 30
0.0
 11
43.23680832252961
 21
90.37386415569677
 31
0.0
  0
LINE
  5
3B9
330
2DF
100
AcDbEntity
  8
Bemaßung (ISO)
440
 16777216
100
AcDbLine
 10
31.32980832252961
 20
91.37386415569677
 30
0.0
 11
41.98680832252961
 21
91.37386415569677
 31
0.0
  0
SOLID
  5
3BA
330
2DF
100
AcDbEntity
  8
Bemaßung (ISO)
440
 16777216
100
AcDbTrace
 10
31.32980832252961
 20
91.58219748903013
 30
0.0
 11
31.32980832252961
 21
91.16553082236343
 31
0.0
 12
30.07980832252961
 22
91.37386415569677
 32
0.0
 13
30.07980832252961
 23
91.37386415569677
 33
0.0
  0
SOLID
  5
3BB
330
2DF
100
AcDbEntity
  8
Bemaßung (ISO)
440
 16777216
100
AcDbTrace
 10
41.98680832252961
 20
91.58219748903013
 30
0.0
 11
41.98680832252961
 21
91.16553082236343
 31
0.0
 12
43.23680832252961
 22
91.37386415569677
 32
0.0
 13
43.23680832252961
 23
91.37386415569677
 33
0.0
  0
MTEXT
  5
3BC
330
2DF
100
AcDbEntity
  8
Bemaßung (ISO)
440
 16777216
100
AcDbMText
 10
34.56502727351019
 20
92.86649717822772
 30
0.0
 40
1.25
 41
0.0
 46
0.0
 71
     1
 72
     1
  1
\A1; G1/4
  7
Notiztext (DIN)
 73
     1
 44
1.0
  0
POINT
  5
3BD
330
2DF
100
AcDbEntity
  8
Defpoints
 62
     0
440
 16777216
100
AcDbPoint
 10
30.07980832252961
 20
96.37386415569679
 30
0.0
  0
POINT
  5
3BE
330
2DF
100
AcDbEntity
  8
Defpoints
 62
     0
440
 16777216
100
AcDbPoint
 10
43.23680832252961
 20
96.37386415569679
 30
0.0
  0
POINT
  5
3BF
330
2DF
100
AcDbEntity
  8
Defpoints
 62
     0
440
 16777216
100
AcDbPoint
 10
43.23680832252961
 20
91.37386415569677
 30
0.0
  0
ENDBLK
  5
2E1
330
2DF
100
AcDbEntity
  8
0
100
AcDbBlockEnd
  0
BLOCK
  5
3C2
330
3C1
100
AcDbEntity
  8
0
100
AcDbBlockBegin
  2
*D6
 70
     1
 10
0.0
 20
0.0
 30
0.0
  3
*D6
  1

  0
LINE
  5
48F
330
3C1
100
AcDbEntity
  8
rot
440
 16777216
100
AcDbLine
 10
42.3808083225296
 20
95.51786415569678
 30
0.0
 11
51.2909612595801
 21
95.51786415569678
 31
0.0
  0
LINE
  5
490
330
3C1
100
AcDbEntity
  8
rot
440
 16777216
100
AcDbLine
 10
42.40830832252973
 20
118.5178641556966
 30
0.0
 11
51.29096125958011
 21
118.5178641556966
 31
0.0
  0
LINE
  5
491
330
3C1
100
AcDbEntity
  8
rot
440
 16777216
100
AcDbLine
 10
50.29096125958012
 20
96.76786415569679
 30
0.0
 11
50.29096125958012
 21
117.2678641556966
 31
0.0
  0
SOLID
  5
492
330
3C1
100
AcDbEntity
  8
rot
440
 16777216
100
AcDbTrace
 10
50.08262792624678
 20
96.76786415569679
 30
0.0
 11
50.49929459291345
 21
96.76786415569679
 31
0.0
 12
50.29096125958012
 22
95.51786415569678
 32
0.0
 13
50.29096125958012
 23
95.51786415569678
 33
0.0
  0
SOLID
  5
493
330
3C1
100
AcDbEntity
  8
rot
440
 16777216
100
AcDbTrace
 10
50.08262792624678
 20
117.2678641556966
 30
0.0
 11
50.49929459291345
 21
117.2678641556966
 31
0.0
 12
50.29096125958012
 22
118.5178641556966
 32
0.0
 13
50.29096125958012
 23
118.5178641556966
 33
0.0
  0
MTEXT
  5
494
330
3C1
100
AcDbEntity
  8
rot
440
 16777216
100
AcDbMText
 10
48.81367612254095
 20
104.0092522691529
 30
0.0
 40
1.25
 41
0.0
 46
0.0
 71
     1
 72
     1
  1
\A1;max. 23
  7
Notiztext (DIN)
 11
0.0000000000000001
 21
1.0
 31
0.0
 73
     1
 44
1.0
  0
POINT
  5
495
330
3C1
100
AcDbEntity
  8
Defpoints
 62
     0
440
 16777216
100
AcDbPoint
 10
42.3808083225296
 20
95.51786415569678
 30
0.0
  0
POINT
  5
496
330
3C1
100
AcDbEntity
  8
Defpoints
 62
     0
440
 16777216
100
AcDbPoint
 10
42.40830832252973
 20
118.5178641556966
 30
0.0
  0
POINT
  5
497
330
3C1
100
AcDbEntity
  8
Defpoints
 62
     0
440
 16777216
100
AcDbPoint
 10
50.29096125958012
 20
118.5178641556966
 30
0.0
  0
ENDBLK
  5
3C3
330
3C1
100
AcDbEntity
  8
0
100
AcDbBlockEnd
  0
BLOCK
  5
49A
330
499
100
AcDbEntity
  8
0
100
AcDbBlockBegin
  2
*D7
 70
     1
 10
0.0
 20
0.0
 30
0.0
  3
*D7
  1

  0
LINE
  5
567
330
499
100
AcDbEntity
  8
rot
440
 16777216
100
AcDbLine
 10
16.65830832252961
 20
123.0018387519123
 30
0.0
 11
16.65830832252961
 21
129.0018387519124
 31
0.0
  0
LINE
  5
568
330
499
100
AcDbEntity
  8
rot
440
 16777216
100
AcDbLine
 10
36.65830832252961
 20
123.0178641556967
 30
0.0
 11
36.65830832252961
 21
129.0018387519124
 31
0.0
  0
LINE
  5
569
330
499
100
AcDbEntity
  8
rot
440
 16777216
100
AcDbLine
 10
17.90830832252961
 20
128.0018387519124
 30
0.0
 11
35.40830832252961
 21
128.0018387519124
 31
0.0
  0
SOLID
  5
56A
330
499
100
AcDbEntity
  8
rot
440
 16777216
100
AcDbTrace
 10
17.90830832252961
 20
128.2101720852457
 30
0.0
 11
17.90830832252961
 21
127.793505418579
 31
0.0
 12
16.65830832252961
 22
128.0018387519124
 32
0.0
 13
16.65830832252961
 23
128.0018387519124
 33
0.0
  0
SOLID
  5
56B
330
499
100
AcDbEntity
  8
rot
440
 16777216
100
AcDbTrace
 10
35.40830832252961
 20
128.2101720852457
 30
0.0
 11
35.40830832252961
 21
127.793505418579
 31
0.0
 12
36.65830832252961
 22
128.0018387519124
 32
0.0
 13
36.65830832252961
 23
128.0018387519124
 33
0.0
  0
MTEXT
  5
56C
330
499
100
AcDbEntity
  8
rot
440
 16777216
100
AcDbMText
 10
23.65182808674856
 20
129.4782712286464
 30
0.0
 40
1.25
 41
0.0
 46
0.0
 71
     1
 72
     1
  1
\A1;max. 20
  7
Notiztext (DIN)
 73
     1
 44
1.0
  0
POINT
  5
56D
330
499
100
AcDbEntity
  8
Defpoints
 62
     0
440
 16777216
100
AcDbPoint
 10
16.65830832252961
 20
123.0018387519123
 30
0.0
  0
POINT
  5
56E
330
499
100
AcDbEntity
  8
Defpoints
 62
     0
440
 16777216
100
AcDbPoint
 10
36.65830832252961
 20
123.0178641556967
 30
0.0
  0
POINT
  5
56F
330
499
100
AcDbEntity
  8
Defpoints
 62
     0
440
 16777216
100
AcDbPoint
 10
36.65830832252961
 20
128.0018387519124
 30
0.0
  0
ENDBLK
  5
49B
330
499
100
AcDbEntity
  8
0
100
AcDbBlockEnd
  0
BLOCK
  5
572
330
571
100
AcDbEntity
  8
0
100
AcDbBlockBegin
  2
*D8
 70
     1
 10
0.0
 20
0.0
 30
0.0
  3
*D8
  1

  0
LINE
  5
64A
330
571
100
AcDbEntity
  8
rot
440
 16777216
100
AcDbLine
 10
72.48673026841185
 20
124.8678641556967
 30
0.0
 11
87.49031522431479
 21
124.8678641556967
 31
0.0
  0
LINE
  5
64B
330
571
100
AcDbEntity
  8
rot
440
 16777216
100
AcDbLine
 10
72.48673026841185
 20
112.1678641556967
 30
0.0
 11
87.49031522431479
 21
112.1678641556967
 31
0.0
  0
LINE
  5
64C
330
571
100
AcDbEntity
  8
rot
440
 16777216
100
AcDbLine
 10
86.4903152243148
 20
123.6178641556967
 30
0.0
 11
86.4903152243148
 21
113.4178641556967
 31
0.0
  0
SOLID
  5
64D
330
571
100
AcDbEntity
  8
rot
440
 16777216
100
AcDbTrace
 10
86.28198189098148
 20
123.6178641556967
 30
0.0
 11
86.69864855764814
 21
123.6178641556967
 31
0.0
 12
86.4903152243148
 22
124.8678641556967
 32
0.0
 13
86.4903152243148
 23
124.8678641556967
 33
0.0
  0
SOLID
  5
64E
330
571
100
AcDbEntity
  8
rot
440
 16777216
100
AcDbTrace
 10
86.28198189098148
 20
113.4178641556967
 30
0.0
 11
86.69864855764814
 21
113.4178641556967
 31
0.0
 12
86.4903152243148
 22
112.1678641556967
 32
0.0
 13
86.4903152243148
 23
112.1678641556967
 33
0.0
  0
MTEXT
  5
64F
330
571
100
AcDbEntity
  8
rot
440
 16777216
100
AcDbMText
 10
84.41904523260093
 20
114.0648497363983
 30
0.0
 40
1.25
 41
0.0
 46
0.0
 71
     1
 72
     1
  1
\A1;max. \fAIGDT|b0|i0;\H1.2437;n\fArial|b0|i0;\H1.2500;12.7
  7
Notiztext (DIN)
 11
0.0000000000000001
 21
1.0
 31
0.0
 73
     1
 44
1.0
  0
POINT
  5
650
330
571
100
AcDbEntity
  8
Defpoints
 62
     0
440
 16777216
100
AcDbPoint
 10
72.48673026841185
 20
124.8678641556967
 30
0.0
  0
POINT
  5
651
330
571
100
AcDbEntity
  8
Defpoints
 62
     0
440
 16777216
100
AcDbPoint
 10
72.48673026841185
 20
112.1678641556967
 30
0.0
  0
POINT
  5
652
330
571
100
AcDbEntity
  8
Defpoints
 62
     0
440
 16777216
100
AcDbPoint
 10
86.4903152243148
 20
112.1678641556967
 30
0.0
  0
ENDBLK
  5
573
330
571
100
AcDbEntity
  8
0
100
AcDbBlockEnd
  0
BLOCK
  5
655
330
654
100
AcDbEntity
  8
0
100
AcDbBlockBegin
  2
*D9
 70
     1
 10
0.0
 20
0.0
 30
0.0
  3
*D9
  1

  0
LINE
  5
72C
330
654
100
AcDbEntity
  8
Bemaßung (ISO)
440
 16777216
100
AcDbLine
 10
72.48673026840922
 20
115.5178641556968
 30
0.0
 11
83.62528429290611
 21
115.5178641556968
 31
0.0
  0
LINE
  5
72D
330
654
100
AcDbEntity
  8
Bemaßung (ISO)
440
 16777216
100
AcDbLine
 10
72.48673026840922
 20
121.5178641556967
 30
0.0
 11
83.62528429290611
 21
121.5178641556967
 31
0.0
  0
LINE
  5
72E
330
654
100
AcDbEntity
  8
Bemaßung (ISO)
440
 16777216
100
AcDbLine
 10
82.62528429290609
 20
116.7678641556967
 30
0.0
 11
82.62528429290609
 21
120.2678641556967
 31
0.0
  0
SOLID
  5
72F
330
654
100
AcDbEntity
  8
Bemaßung (ISO)
440
 16777216
100
AcDbTrace
 10
82.41695095957275
 20
116.7678641556967
 30
0.0
 11
82.83361762623943
 21
116.7678641556967
 31
0.0
 12
82.62528429290609
 22
115.5178641556968
 32
0.0
 13
82.62528429290609
 23
115.5178641556968
 33
0.0
  0
SOLID
  5
730
330
654
100
AcDbEntity
  8
Bemaßung (ISO)
440
 16777216
100
AcDbTrace
 10
82.41695095957275
 20
120.2678641556967
 30
0.0
 11
82.83361762623943
 21
120.2678641556967
 31
0.0
 12
82.62528429290609
 22
121.5178641556967
 32
0.0
 13
82.62528429290609
 23
121.5178641556967
 33
0.0
  0
MTEXT
  5
731
330
654
100
AcDbEntity
  8
Bemaßung (ISO)
440
 16777216
100
AcDbMText
 10
80.55401430119223
 20
117.4006531055884
 30
0.0
 40
1.25
 41
0.0
 46
0.0
 71
     1
 72
     1
  1
\A1;\fAIGDT|b0|i0;\H1.2437;n\fArial|b0|i0;\H1.2500;6
  7
Notiztext (DIN)
 11
0.0000000000000001
 21
1.0
 31
0.0
 73
     1
 44
1.0
  0
POINT
  5
732
330
654
100
AcDbEntity
  8
Defpoints
 62
     0
440
 16777216
100
AcDbPoint
 10
72.48673026840922
 20
115.5178641556968
 30
0.0
  0
POINT
  5
733
330
654
100
AcDbEntity
  8
Defpoints
 62
     0
440
 16777216
100
AcDbPoint
 10
72.48673026840922
 20
121.5178641556967
 30
0.0
  0
POINT
  5
734
330
654
100
AcDbEntity
  8
Defpoints
 62
     0
440
 16777216
100
AcDbPoint
 10
82.62528429290609
 20
121.5178641556967
 30
0.0
  0
ENDBLK
  5
656
330
654
100
AcDbEntity
  8
0
100
AcDbBlockEnd
  0
BLOCK
  5
73B
330
73A
100
AcDbEntity
  8
0
100
AcDbBlockBegin
  2
*D10
 70
     1
 10
0.0
 20
0.0
 30
0.0
  3
*D10
  1

  0
LINE
  5
812
330
73A
100
AcDbEntity
  8
Bemaßung (ISO)
440
 16777216
100
AcDbLine
 10
42.3808083225296
 20
95.51786415569678
 30
0.0
 11
48.25830832252962
 21
95.51786415569678
 31
0.0
  0
LINE
  5
813
330
73A
100
AcDbEntity
  8
Bemaßung (ISO)
440
 16777216
100
AcDbLine
 10
43.55830832252961
 20
102.5178641556967
 30
0.0
 11
48.25830832252962
 21
102.5178641556967
 31
0.0
  0
LINE
  5
814
330
73A
100
AcDbEntity
  8
Bemaßung (ISO)
440
 16777216
100
AcDbLine
 10
47.25830832252962
 20
96.76786415569679
 30
0.0
 11
47.25830832252962
 21
101.2678641556967
 31
0.0
  0
SOLID
  5
815
330
73A
100
AcDbEntity
  8
Bemaßung (ISO)
440
 16777216
100
AcDbTrace
 10
47.04997498919627
 20
96.76786415569679
 30
0.0
 11
47.46664165586294
 21
96.76786415569679
 31
0.0
 12
47.25830832252962
 22
95.51786415569678
 32
0.0
 13
47.25830832252962
 23
95.51786415569678
 33
0.0
  0
SOLID
  5
816
330
73A
100
AcDbEntity
  8
Bemaßung (ISO)
440
 16777216
100
AcDbTrace
 10
47.04997498919627
 20
101.2678641556967
 30
0.0
 11
47.46664165586294
 21
101.2678641556967
 31
0.0
 12
47.25830832252962
 22
102.5178641556967
 32
0.0
 13
47.25830832252962
 23
102.5178641556967
 33
0.0
  0
MTEXT
  5
817
330
73A
100
AcDbEntity
  8
Bemaßung (ISO)
440
 16777216
100
AcDbMText
 10
45.8083083225296
 20
98.61327684092705
 30
0.0
 40
1.25
 41
0.0
 46
0.0
 71
     1
 72
     1
  1
\A1;7
  7
Notiztext (DIN)
 11
0.0000000000000001
 21
1.0
 31
0.0
 73
     1
 44
1.0
  0
POINT
  5
818
330
73A
100
AcDbEntity
  8
Defpoints
 62
     0
440
 16777216
100
AcDbPoint
 10
42.3808083225296
 20
95.51786415569678
 30
0.0
  0
POINT
  5
819
330
73A
100
AcDbEntity
  8
Defpoints
 62
     0
440
 16777216
100
AcDbPoint
 10
43.55830832252961
 20
102.5178641556967
 30
0.0
  0
POINT
  5
81A
330
73A
100
AcDbEntity
  8
Defpoints
 62
     0
440
 16777216
100
AcDbPoint
 10
47.25830832252962
 20
102.5178641556967
 30
0.0
  0
ENDBLK
  5
73C
330
73A
100
AcDbEntity
  8
0
100
AcDbBlockEnd
  0
ENDSEC
  0
SECTION
  2
ENTITIES
  0
INSERT
  5
119
330
71
100
AcDbEntity
  8
0
100
AcDbBlockReference
  2
Ränder Standardrahmen
 10
0.0
 20
0.0
 30
0.0
 41
0.5
 42
0.5
 43
0.5
  0
INSERT
  5
207
330
71
100
AcDbEntity
  8
0
100
AcDbBlockReference
 66
     1
  2
Schriftfelder perma_schriftfeld
 10
-63.75639417920115
 20
-52.04410280776108
 30
0.0
 41
0.5
 42
0.5
 43
0.5
  0
ATTRIB
  5
209
102
{ACAD_XDICTIONARY
360
8BE
102
}
330
207
100
AcDbEntity
  8
Titel (ISO)
100
AcDbText
 10
94.95118907094392
 20
7.911262160232732
 30
0.0
 40
1.25
  1
A4
  7
Notiztext (DIN)
100
AcDbAttribute
280
     0
  2
Blattgröße_001
 70
     0
280
     0
  0
ATTRIB
  5
20A
102
{ACAD_XDICTIONARY
360
8C1
102
}
330
207
100
AcDbEntity
  8
Titel (ISO)
100
AcDbText
 10
95.52891698551462
 20
10.49604391367835
 30
0.0
 40
2.5
  1
1
  7
Textstil29
100
AcDbAttribute
280
     0
  2
Blattnummer_001
 70
     0
280
     0
  0
ATTRIB
  5
20C
102
{ACAD_XDICTIONARY
360
8C4
102
}
330
207
100
AcDbEntity
  8
Titel (ISO)
100
AcDbText
 10
6.405968600733165
 20
7.737499979499267
 30
0.0
 40
0.9000000357627866
  1
B
  7
Textstil57
100
AcDbAttribute
280
     0
  2
Status1_001
 70
     0
280
     0
  0
ATTRIB
  5
20D
102
{ACAD_XDICTIONARY
360
8C7
102
}
330
207
100
AcDbEntity
  8
Titel (ISO)
100
AcDbText
 10
9.97509350127801
 20
7.862124814644771
 30
0.0
 40
0.9000000357627866
  1
Artikelnr. geändert
  7
Textstil57
100
AcDbAttribute
280
     0
  2
Änderungen1_001
 70
     0
280
     0
  0
ATTRIB
  5
20E
102
{ACAD_XDICTIONARY
360
8CA
102
}
330
207
100
AcDbEntity
  8
Titel (ISO)
100
AcDbText
 10
22.46030002527971
 20
7.743332176217899
 30
0.0
 40
0.9000000357627866
  1
30.12.10
  7
Textstil57
100
AcDbAttribute
280
     0
  2
Datum1_001
 70
     0
280
     0
  0
ATTRIB
  5
20F
102
{ACAD_XDICTIONARY
360
8CD
102
}
330
207
100
AcDbEntity
  8
Titel (ISO)
100
AcDbText
 10
28.08908586451912
 20
7.744866964828064
 30
0.0
 40
0.9000000357627866
  1
Bader
  7
Textstil57
100
AcDbAttribute
280
     0
  2
Name1_001
 70
     0
280
     0
  0
ATTRIB
  5
210
102
{ACAD_XDICTIONARY
360
8D0
102
}
330
207
100
AcDbEntity
  8
Titel (ISO)
100
AcDbText
 10
6.423465190889059
 20
9.86249997949927
 30
0.0
 40
0.9000000357627866
  1
C
  7
Textstil57
100
AcDbAttribute
280
     0
  2
Status2_001
 70
     0
280
     0
  0
ATTRIB
  5
211
102
{ACAD_XDICTIONARY
360
8D3
102
}
330
207
100
AcDbEntity
  8
Titel (ISO)
100
AcDbText
 10
11.84814952112487
 20
9.987124814644769
 30
0.0
 40
0.9000000357627866
  1
Text ergänzt
  7
Textstil57
100
AcDbAttribute
280
     0
  2
Änderungen2_001
 70
     0
280
     0
  0
ATTRIB
  5
212
102
{ACAD_XDICTIONARY
360
8D6
102
}
330
207
100
AcDbEntity
  8
Titel (ISO)
100
AcDbText
 10
22.46429047566614
 20
9.868332176217903
 30
0.0
 40
0.9000000357627866
  1
21.11.13
  7
Textstil57
100
AcDbAttribute
280
     0
  2
Datum2_001
 70
     0
280
     0
  0
ATTRIB
  5
213
102
{ACAD_XDICTIONARY
360
8D9
102
}
330
207
100
AcDbEntity
  8
Titel (ISO)
100
AcDbText
 10
28.08908586451912
 20
9.869866964828068
 30
0.0
 40
0.9000000357627866
  1
Bader
  7
Textstil57
100
AcDbAttribute
280
     0
  2
Name2_001
 70
     0
280
     0
  0
ATTRIB
  5
214
102
{ACAD_XDICTIONARY
360
8DC
102
}
330
207
100
AcDbEntity
  8
Titel (ISO)
100
AcDbText
 10
6.423465190889059
 20
11.98749997949927
 30
0.0
 40
0.9000000357627866
  1
C
  7
Textstil57
100
AcDbAttribute
280
     0
  2
Status3_001
 70
     0
280
     0
  0
ATTRIB
  5
215
102
{ACAD_XDICTIONARY
360
8DF
102
}
330
207
100
AcDbEntity
  8
Titel (ISO)
100
AcDbText
 10
12.01452060646689
 20
11.9878069372213
 30
0.0
 40
0.9000000357627866
  1
SW entfernt
  7
Textstil57
100
AcDbAttribute
280
     0
  2
Änderungen3_001
 70
     0
280
     0
  0
ATTRIB
  5
216
102
{ACAD_XDICTIONARY
360
8E2
102
}
330
207
100
AcDbEntity
  8
Titel (ISO)
100
AcDbText
 10
22.46429047566614
 20
11.9933321762179
 30
0.0
 40
0.9000000357627866
  1
21.11.13
  7
Textstil57
100
AcDbAttribute
280
     0
  2
Datum3_001
 70
     0
280
     0
  0
ATTRIB
  5
217
102
{ACAD_XDICTIONARY
360
8E5
102
}
330
207
100
AcDbEntity
  8
Titel (ISO)
100
AcDbText
 10
28.08908586451912
 20
11.99486696482807
 30
0.0
 40
0.9000000357627866
  1
Bader
  7
Textstil57
100
AcDbAttribute
280
     0
  2
Name3_001
 70
     0
280
     0
  0
ATTRIB
  5
218
102
{ACAD_XDICTIONARY
360
8E8
102
}
330
207
100
AcDbEntity
  8
Titel (ISO)
100
AcDbText
 10
6.42346519088906
 20
14.11249997949927
 30
0.0
 40
0.9000000357627866
  1
C
  7
Textstil57
100
AcDbAttribute
280
     0
  2
Status4_001
 70
     0
280
     0
  0
ATTRIB
  5
219
102
{ACAD_XDICTIONARY
360
8EB
102
}
330
207
100
AcDbEntity
  8
Titel (ISO)
100
AcDbText
 10
9.49102117363158
 20
14.11219302177723
 30
0.0
 40
0.9000000357627866
  1
Maße als max. Maße
  7
Textstil57
100
AcDbAttribute
280
     0
  2
Änderungen4_001
 70
     0
280
     0
  0
ATTRIB
  5
21A
102
{ACAD_XDICTIONARY
360
8EE
102
}
330
207
100
AcDbEntity
  8
Titel (ISO)
100
AcDbText
 10
22.46429047566615
 20
14.1183321762179
 30
0.0
 40
0.9000000357627866
  1
21.11.13
  7
Textstil57
100
AcDbAttribute
280
     0
  2
Datum4_001
 70
     0
280
     0
  0
ATTRIB
  5
21B
102
{ACAD_XDICTIONARY
360
8F1
102
}
330
207
100
AcDbEntity
  8
Titel (ISO)
100
AcDbText
 10
28.08908586451912
 20
14.11986696482807
 30
0.0
 40
0.9000000357627866
  1
Bader
  7
Textstil57
100
AcDbAttribute
280
     0
  2
Name4_001
 70
     0
280
     0
  0
ATTRIB
  5
21C
102
{ACAD_XDICTIONARY
360
8F4
102
}
330
207
100
AcDbEntity
  8
Titel (ISO)
100
AcDbText
 10
6.423465190889059
 20
16.23749997949928
 30
0.0
 40
0.9000000357627866
  1
C
  7
Textstil57
100
AcDbAttribute
280
     0
  2
Status5_001
 70
     0
280
     0
  0
ATTRIB
  5
21D
102
{ACAD_XDICTIONARY
360
8F7
102
}
330
207
100
AcDbEntity
  8
Titel (ISO)
100
AcDbText
 10
10.53713309032088
 20
16.24486696482807
 30
0.0
 40
0.9000000357627866
  1
Art.Nr. neu hinzu
  7
Textstil57
100
AcDbAttribute
280
     0
  2
Änderungen5_001
 70
     0
280
     0
  0
ATTRIB
  5
21E
102
{ACAD_XDICTIONARY
360
8FA
102
}
330
207
100
AcDbEntity
  8
Titel (ISO)
100
AcDbText
 10
22.46429047566615
 20
16.24333217621791
 30
0.0
 40
0.9000000357627866
  1
21.11.13
  7
Textstil57
100
AcDbAttribute
280
     0
  2
Datum5_001
 70
     0
280
     0
  0
ATTRIB
  5
21F
102
{ACAD_XDICTIONARY
360
8FD
102
}
330
207
100
AcDbEntity
  8
Titel (ISO)
100
AcDbText
 10
28.08908586451912
 20
16.24486696482807
 30
0.0
 40
0.9000000357627866
  1
Bader
  7
Textstil57
100
AcDbAttribute
280
     0
  2
Name5_001
 70
     0
280
     0
  0
ATTRIB
  5
220
102
{ACAD_XDICTIONARY
360
900
102
}
330
207
100
AcDbEntity
  8
Titel (ISO)
100
AcDbText
 10
6.874999999999964
 20
18.36249998211862
 30
0.0
 40
0.9000000357627866
  1

  7
Textstil57
 72
     1
 11
6.874999999999964
 21
18.81250000000002
 31
0.0
100
AcDbAttribute
280
     0
  2
Status6
 70
     0
 74
     2
280
     0
  0
ATTRIB
  5
221
102
{ACAD_XDICTIONARY
360
903
102
}
330
207
100
AcDbEntity
  8
Titel (ISO)
100
AcDbText
 10
15.55681271873055
 20
18.36249998211862
 30
0.0
 40
0.9000000357627866
  1

  7
Textstil57
 72
     1
 11
15.55681271873055
 21
18.81250000000002
 31
0.0
100
AcDbAttribute
280
     0
  2
Änderungen6
 70
     0
 74
     2
280
     0
  0
ATTRIB
  5
222
102
{ACAD_XDICTIONARY
360
906
102
}
330
207
100
AcDbEntity
  8
Titel (ISO)
100
AcDbText
 10
24.89999999999995
 20
18.36249998211862
 30
0.0
 40
0.9000000357627866
  1

  7
Textstil57
 72
     1
 11
24.89999999999995
 21
18.81250000000002
 31
0.0
100
AcDbAttribute
280
     0
  2
Datum6
 70
     0
 74
     2
280
     0
  0
ATTRIB
  5
223
102
{ACAD_XDICTIONARY
360
909
102
}
330
207
100
AcDbEntity
  8
Titel (ISO)
100
AcDbText
 10
29.92499999999996
 20
18.36249998211862
 30
0.0
 40
0.9000000357627866
  1

  7
Textstil57
 72
     1
 11
29.92499999999996
 21
18.81250000000002
 31
0.0
100
AcDbAttribute
280
     0
  2
Name6
 70
     0
 74
     2
280
     0
  0
ATTRIB
  5
224
102
{ACAD_XDICTIONARY
360
90C
102
}
330
207
100
AcDbEntity
  8
Titel (ISO)
100
AcDbText
 10
6.874999999999964
 20
20.48749998211864
 30
0.0
 40
0.9000000357627866
  1

  7
Textstil57
 72
     1
 11
6.874999999999964
 21
20.93750000000003
 31
0.0
100
AcDbAttribute
280
     0
  2
Status7
 70
     0
 74
     2
280
     0
  0
ATTRIB
  5
225
102
{ACAD_XDICTIONARY
360
90F
102
}
330
207
100
AcDbEntity
  8
Titel (ISO)
100
AcDbText
 10
15.55681271873055
 20
20.48749998211864
 30
0.0
 40
0.9000000357627866
  1

  7
Textstil57
 72
     1
 11
15.55681271873055
 21
20.93750000000003
 31
0.0
100
AcDbAttribute
280
     0
  2
Änderungen7
 70
     0
 74
     2
280
     0
  0
ATTRIB
  5
226
102
{ACAD_XDICTIONARY
360
912
102
}
330
207
100
AcDbEntity
  8
Titel (ISO)
100
AcDbText
 10
24.89999999999995
 20
20.48749998211864
 30
0.0
 40
0.9000000357627866
  1

  7
Textstil57
 72
     1
 11
24.89999999999995
 21
20.93750000000003
 31
0.0
100
AcDbAttribute
280
     0
  2
Datum7
 70
     0
 74
     2
280
     0
  0
ATTRIB
  5
227
102
{ACAD_XDICTIONARY
360
915
102
}
330
207
100
AcDbEntity
  8
Titel (ISO)
100
AcDbText
 10
29.92499999999996
 20
20.48749998211864
 30
0.0
 40
0.9000000357627866
  1

  7
Textstil57
 72
     1
 11
29.92499999999996
 21
20.93750000000003
 31
0.0
100
AcDbAttribute
280
     0
  2
Name7
 70
     0
 74
     2
280
     0
  0
ATTRIB
  5
228
102
{ACAD_XDICTIONARY
360
918
102
}
330
207
100
AcDbEntity
  8
Titel (ISO)
100
AcDbText
 10
6.874999999999964
 20
22.61249998211865
 30
0.0
 40
0.9000000357627866
  1

  7
Textstil57
 72
     1
 11
6.874999999999964
 21
23.06250000000004
 31
0.0
100
AcDbAttribute
280
     0
  2
Status8
 70
     0
 74
     2
280
     0
  0
ATTRIB
  5
229
102
{ACAD_XDICTIONARY
360
91B
102
}
330
207
100
AcDbEntity
  8
Titel (ISO)
100
AcDbText
 10
15.55681271873055
 20
22.61249998211865
 30
0.0
 40
0.9000000357627866
  1

  7
Textstil57
 72
     1
 11
15.55681271873055
 21
23.06250000000004
 31
0.0
100
AcDbAttribute
280
     0
  2
Änderungen8
 70
     0
 74
     2
280
     0
  0
ATTRIB
  5
22A
102
{ACAD_XDICTIONARY
360
91E
102
}
330
207
100
AcDbEntity
  8
Titel (ISO)
100
AcDbText
 10
24.89999999999995
 20
22.61249998211865
 30
0.0
 40
0.9000000357627866
  1

  7
Textstil57
 72
     1
 11
24.89999999999995
 21
23.06250000000004
 31
0.0
100
AcDbAttribute
280
     0
  2
Datum8
 70
     0
 74
     2
280
     0
  0
ATTRIB
  5
22B
102
{ACAD_XDICTIONARY
360
921
102
}
330
207
100
AcDbEntity
  8
Titel (ISO)
100
AcDbText
 10
29.92499999999996
 20
22.61249998211865
 30
0.0
 40
0.9000000357627866
  1

  7
Textstil57
 72
     1
 11
29.92499999999996
 21
23.06250000000004
 31
0.0
100
AcDbAttribute
280
     0
  2
Name8
 70
     0
 74
     2
280
     0
  0
ATTRIB
  5
22C
102
{ACAD_XDICTIONARY
360
924
102
}
330
207
100
AcDbEntity
  8
Titel (ISO)
100
AcDbText
 10
14.67310713871117
 20
27.38634040817459
 30
0.0
 40
1.749999970197676
  1
101551
  7
Textstil59
100
AcDbAttribute
280
     0
  2
Artikelnummer_neu_001
 70
     0
280
     0
  0
ATTRIB
  5
22D
102
{ACAD_XDICTIONARY
360
927
102
}
330
207
100
AcDbEntity
  8
Titel (ISO)
100
AcDbText
 10
13.69817527813424
 20
24.85368348509656
 30
0.0
 40
1.25
  1
(27.005.087)
  7
Textstil54
100
AcDbAttribute
280
     0
  2
Artikelnummer_alt_001
 70
     0
280
     0
  0
ATTRIB
  5
22E
102
{ACAD_XDICTIONARY
360
92A
102
}
330
207
100
AcDbEntity
  8
Titel (ISO)
100
AcDbText
 10
84.67219292263839
 20
30.40799792949267
 30
0.0
 40
1.500000059604644
  1
Messing vern.
  7
Textstil56
100
AcDbAttribute
280
     0
  2
Material_001
 70
     0
280
     0
  0
ATTRIB
  5
22F
102
{ACAD_XDICTIONARY
360
92D
102
}
330
207
100
AcDbEntity
  8
Titel (ISO)
100
AcDbText
 10
68.02233038272817
 20
30.18443038861179
 30
0.0
 40
1.500000059604644
  1
2:1
  7
Textstil56
100
AcDbAttribute
280
     0
  2
Maßstab_001
 70
     0
280
     0
  0
ATTRIB
  5
230
102
{ACAD_XDICTIONARY
360
930
102
}
330
207
100
AcDbEntity
  8
Titel (ISO)
100
AcDbText
 10
38.96429047566612
 20
20.49333217621792
 30
0.0
 40
0.9000000357627866
  1
21.11.13
  7
Textstil57
100
AcDbAttribute
280
     0
  2
Gezeichnet_Datum_001
 70
     0
280
     0
  0
ATTRIB
  5
231
102
{ACAD_XDICTIONARY
360
933
102
}
330
207
100
AcDbEntity
  8
Titel (ISO)
100
AcDbText
 10
48.01408586451909
 20
20.49486696482809
 30
0.0
 40
0.9000000357627866
  1
Bader
  7
Textstil57
100
AcDbAttribute
280
     0
  2
Gezeichnet_Name_001
 70
     0
280
     0
  0
ATTRIB
  5
232
102
{ACAD_XDICTIONARY
360
936
102
}
330
207
100
AcDbEntity
  8
Titel (ISO)
100
AcDbText
 10
73.24999999999987
 20
8.324816997882402
 30
0.0
 40
2.000000029802321
  1

  7
Textstil53
 72
     1
 11
73.24999999999987
 21
9.324817012783563
 31
0.0
100
AcDbAttribute
280
     0
  2
Benennung
 70
     0
 74
     2
280
     0
  0
ATTRIB
  5
233
102
{ACAD_XDICTIONARY
360
939
102
}
330
207
100
AcDbEntity
  8
Titel (ISO)
100
AcDbText
 10
69.99444175221552
 20
5.43749999636203
 30
0.0
 40
1.25
  1
AN GEA 25 C
  7
Textstil54
100
AcDbAttribute
280
     0
  2
Zeichnungsnummer_001
 70
     0
280
     0
  0
ATTRIB
  5
234
102
{ACAD_XDICTIONARY
360
93C
102
}
330
207
100
AcDbEntity
  8
Titel (ISO)
100
AcDbText
 10
40.88345671869399
 20
5.437499996362022
 30
0.0
 40
1.25
  1
AN GEA 25 B
  7
Textstil54
100
AcDbAttribute
280
     0
  2
Ers._für_001
 70
     0
280
     0
  0
ATTRIB
  5
235
102
{ACAD_XDICTIONARY
360
93F
102
}
330
207
100
AcDbEntity
  8
Titel (ISO)
100
AcDbText
 10
33.54167783222327
 20
8.341188070163488
 30
0.0
 40
2.000000029802321
  1
Anschlussteile
  7
Textstil53
100
AcDbAttribute
280
     0
  2
Projekt_001
 70
     0
280
     0
  0
ATTRIB
  5
236
102
{ACAD_XDICTIONARY
360
942
102
}
330
207
100
AcDbEntity
  8
Titel (ISO)
100
AcDbText
 10
38.96429047566616
 20
18.36833217621791
 30
0.0
 40
0.9000000357627866
  1
21.11.13
  7
Textstil57
100
AcDbAttribute
280
     0
  2
Kontroll_Datum_001
 70
     0
280
     0
  0
ATTRIB
  5
237
102
{ACAD_XDICTIONARY
360
945
102
}
330
207
100
AcDbEntity
  8
Titel (ISO)
100
AcDbText
 10
46.17663694042807
 20
18.36986696482808
 30
0.0
 40
0.9000000357627866
  1
Hildenbrand
  7
Textstil57
100
AcDbAttribute
280
     0
  2
Kontroll__Name_001
 70
     0
280
     0
  0
SEQEND
  5
208
330
207
100
AcDbEntity
  8
0
  0
SPLINE
  5
238
330
71
100
AcDbEntity
  8
Sichtbar (ISO)
100
AcDbSpline
210
0.0
220
0.0
230
1.0
 70
    12
 71
     2
 72
     6
 73
     3
 74
     0
 42
0.000000001
 43
0.0000000001
 40
0.2802313949843241
 40
0.2802313949843241
 40
0.2802313949843241
 40
0.5604627899686481
 40
0.5604627899686481
 40
0.5604627899686481
 10
40.40830832252961
 20
108.0178641556967
 30
0.0
 41
1.0
 10
41.57487897910132
 20
108.0178641556967
 30
0.0
 41
1.016530045465164
 10
42.81922101277783
 20
107.7291890211018
 30
0.0
 41
1.0
  0
SPLINE
  5
239
330
71
100
AcDbEntity
  8
Sichtbar (ISO)
100
AcDbSpline
210
0.0
220
0.0
230
1.0
 70
    12
 71
     2
 72
     6
 73
     3
 74
     0
 42
0.000000001
 43
0.0000000001
 40
0.0
 40
0.0
 40
0.0
 40
0.2802313949843241
 40
0.2802313949843241
 40
0.2802313949843241
 10
37.99739563228141
 20
107.7291890211018
 30
0.0
 41
1.0
 10
39.24173766595791
 20
108.0178641556967
 30
0.0
 41
1.016530045465158
 10
40.40830832252961
 20
108.0178641556967
 30
0.0
 41
1.0
  0
LINE
  5
23A
330
71
100
AcDbEntity
  8
Sichtbar (ISO)
100
AcDbLine
 10
37.9973956322814
 20
103.8065392902917
 30
0.0
 11
37.9973956322814
 21
107.7291890211018
 31
0.0
  0
SPLINE
  5
23B
330
71
100
AcDbEntity
  8
Sichtbar (ISO)
100
AcDbSpline
210
0.0
220
0.0
230
1.0
 70
    12
 71
     2
 72
     6
 73
     3
 74
     0
 42
0.000000001
 43
0.0000000001
 40
0.280231394984324
 40
0.280231394984324
 40
0.280231394984324
 40
0.560462789968648
 40
0.560462789968648
 40
0.560462789968648
 10
40.40830832252961
 20
103.5178641556967
 30
0.0
 41
1.0
 10
39.24173766595791
 20
103.5178641556967
 30
0.0
 41
1.01653004546519
 10
37.99739563228141
 20
103.8065392902917
 30
0.0
 41
1.0
  0
SPLINE
  5
23C
330
71
100
AcDbEntity
  8
Sichtbar (ISO)
100
AcDbSpline
210
0.0
220
0.0
230
1.0
 70
    12
 71
     2
 72
     6
 73
     3
 74
     0
 42
0.000000001
 43
0.0000000001
 40
0.0
 40
0.0
 40
0.0
 40
0.280231394984324
 40
0.280231394984324
 40
0.280231394984324
 10
42.81922101277783
 20
103.8065392902917
 30
0.0
 41
1.0
 10
41.57487897910134
 20
103.5178641556967
 30
0.0
 41
1.016530045465196
 10
40.40830832252961
 20
103.5178641556967
 30
0.0
 41
1.0
  0
LINE
  5
23D
330
71
100
AcDbEntity
  8
Sichtbar (ISO)
100
AcDbLine
 10
42.81922101277785
 20
107.7291890211018
 30
0.0
 11
42.81922101277785
 21
103.8065392902917
 31
0.0
  0
SPLINE
  5
23E
330
71
100
AcDbEntity
  8
Sichtbar (ISO)
100
AcDbSpline
210
0.0
220
0.0
230
1.0
 70
    12
 71
     2
 72
     6
 73
     3
 74
     0
 42
0.000000001
 43
0.0000000001
 40
0.280231394984324
 40
0.280231394984324
 40
0.280231394984324
 40
0.5604627899686481
 40
0.5604627899686481
 40
0.5604627899686481
 10
32.90830832252961
 20
108.0178641556967
 30
0.0
 41
1.0
 10
34.07487897910132
 20
108.0178641556967
 30
0.0
 41
1.01653004546516
 10
35.31922101277782
 20
107.7291890211018
 30
0.0
 41
1.0
  0
SPLINE
  5
23F
330
71
100
AcDbEntity
  8
Sichtbar (ISO)
100
AcDbSpline
210
0.0
220
0.0
230
1.0
 70
    12
 71
     2
 72
     6
 73
     3
 74
     0
 42
0.000000001
 43
0.0000000001
 40
0.0
 40
0.0
 40
0.0
 40
0.280231394984324
 40
0.280231394984324
 40
0.280231394984324
 10
30.4973956322814
 20
107.7291890211018
 30
0.0
 41
1.0
 10
31.74173766595789
 20
108.0178641556967
 30
0.0
 41
1.016530045465155
 10
32.90830832252961
 20
108.0178641556967
 30
0.0
 41
1.0
  0
LINE
  5
240
330
71
100
AcDbEntity
  8
Sichtbar (ISO)
100
AcDbLine
 10
30.49739563228138
 20
103.8065392902917
 30
0.0
 11
30.49739563228138
 21
107.7291890211018
 31
0.0
  0
SPLINE
  5
241
330
71
100
AcDbEntity
  8
Sichtbar (ISO)
100
AcDbSpline
210
0.0
220
0.0
230
1.0
 70
    12
 71
     2
 72
     6
 73
     3
 74
     0
 42
0.000000001
 43
0.0000000001
 40
0.2802313949843247
 40
0.2802313949843247
 40
0.2802313949843247
 40
0.5604627899686494
 40
0.5604627899686494
 40
0.5604627899686494
 10
32.90830832252961
 20
103.5178641556967
 30
0.0
 41
1.0
 10
31.74173766595789
 20
103.5178641556967
 30
0.0
 41
1.016530045465194
 10
30.49739563228138
 20
103.8065392902917
 30
0.0
 41
1.0
  0
SPLINE
  5
242
330
71
100
AcDbEntity
  8
Sichtbar (ISO)
100
AcDbSpline
210
0.0
220
0.0
230
1.0
 70
    12
 71
     2
 72
     6
 73
     3
 74
     0
 42
0.000000001
 43
0.0000000001
 40
0.0
 40
0.0
 40
0.0
 40
0.2802313949843247
 40
0.2802313949843247
 40
0.2802313949843247
 10
35.31922101277782
 20
103.8065392902917
 30
0.0
 41
1.0
 10
34.07487897910132
 20
103.5178641556967
 30
0.0
 41
1.016530045465194
 10
32.90830832252961
 20
103.5178641556967
 30
0.0
 41
1.0
  0
LINE
  5
243
330
71
100
AcDbEntity
  8
Sichtbar (ISO)
100
AcDbLine
 10
35.31922101277782
 20
107.7291890211018
 30
0.0
 11
35.31922101277782
 21
103.8065392902917
 31
0.0
  0
SPLINE
  5
244
330
71
100
AcDbEntity
  8
Sichtbar (ISO)
100
AcDbSpline
210
0.0
220
0.0
230
1.0
 70
    28
 71
     2
 72
     6
 73
     3
 74
     0
 42
0.000000001
 43
0.0000000001
 40
0.2802313949843266
 40
0.2802313949843266
 40
0.2802313949843266
 40
0.5604627899686533
 40
0.5604627899686533
 40
0.5604627899686533
 10
29.15830832252961
 20
108.0178641556967
 30
0.0
 41
1.0
 10
29.15830832252961
 20
108.0178641556967
 30
0.0
 41
1.01653004546513
 10
29.15830832252961
 20
107.7291890211018
 30
0.0
 41
1.0
  0
SPLINE
  5
245
330
71
100
AcDbEntity
  8
Sichtbar (ISO)
100
AcDbSpline
210
0.0
220
0.0
230
1.0
 70
    28
 71
     2
 72
     6
 73
     3
 74
     0
 42
0.000000001
 43
0.0000000001
 40
0.0
 40
0.0
 40
0.0
 40
0.2802313949843272
 40
0.2802313949843272
 40
0.2802313949843272
 10
29.15830832252961
 20
103.8065392902917
 30
0.0
 41
1.0
 10
29.15830832252961
 20
103.5178641556967
 30
0.0
 41
1.016530045465098
 10
29.15830832252961
 20
103.5178641556967
 30
0.0
 41
1.0
  0
LINE
  5
246
330
71
100
AcDbEntity
  8
Sichtbar (ISO)
100
AcDbLine
 10
29.15830832252961
 20
107.7291890211018
 30
0.0
 11
29.15830832252961
 21
103.8065392902917
 31
0.0
  0
SPLINE
  5
247
330
71
100
AcDbEntity
  8
Sichtbar (ISO)
100
AcDbSpline
210
0.0
220
0.0
230
1.0
 70
    28
 71
     2
 72
     6
 73
     3
 74
     0
 42
0.000000001
 43
0.0000000001
 40
0.0
 40
0.0
 40
0.0
 40
0.2802313949843266
 40
0.2802313949843266
 40
0.2802313949843266
 10
44.15830832252961
 20
107.7291890211018
 30
0.0
 41
1.0
 10
44.15830832252961
 20
108.0178641556967
 30
0.0
 41
1.01653004546513
 10
44.15830832252961
 20
108.0178641556967
 30
0.0
 41
1.0
  0
LINE
  5
248
330
71
100
AcDbEntity
  8
Sichtbar (ISO)
100
AcDbLine
 10
44.15830832252961
 20
103.8065392902917
 30
0.0
 11
44.15830832252961
 21
107.7291890211018
 31
0.0
  0
SPLINE
  5
249
330
71
100
AcDbEntity
  8
Sichtbar (ISO)
100
AcDbSpline
210
0.0
220
0.0
230
1.0
 70
    28
 71
     2
 72
     6
 73
     3
 74
     0
 42
0.000000001
 43
0.0000000001
 40
0.2802313949843272
 40
0.2802313949843272
 40
0.2802313949843272
 40
0.5604627899686545
 40
0.5604627899686545
 40
0.5604627899686545
 10
44.15830832252961
 20
103.5178641556967
 30
0.0
 41
1.0
 10
44.15830832252961
 20
103.5178641556967
 30
0.0
 41
1.016530045465098
 10
44.15830832252961
 20
103.8065392902917
 30
0.0
 41
1.0
  0
LINE
  5
24A
330
71
100
AcDbEntity
  8
Sichtbar (ISO)
100
AcDbLine
 10
29.15830832252961
 20
103.8065392902917
 30
0.0
 11
30.49739563228138
 21
103.8065392902917
 31
0.0
  0
LINE
  5
24B
330
71
100
AcDbEntity
  8
Sichtbar (ISO)
100
AcDbLine
 10
29.15830832252961
 20
103.5178641556967
 30
0.0
 11
32.90830832252961
 21
103.5178641556967
 31
0.0
  0
LINE
  5
24C
330
71
100
AcDbEntity
  8
Sichtbar (ISO)
100
AcDbLine
 10
35.31922101277782
 20
103.8065392902917
 30
0.0
 11
37.9973956322814
 21
103.8065392902917
 31
0.0
  0
LINE
  5
24D
330
71
100
AcDbEntity
  8
Sichtbar (ISO)
100
AcDbLine
 10
32.90830832252961
 20
103.5178641556967
 30
0.0
 11
40.40830832252961
 21
103.5178641556967
 31
0.0
  0
LINE
  5
24E
330
71
100
AcDbEntity
  8
Sichtbar (ISO)
100
AcDbLine
 10
40.40830832252961
 20
103.5178641556967
 30
0.0
 11
44.15830832252961
 21
103.5178641556967
 31
0.0
  0
LINE
  5
24F
330
71
100
AcDbEntity
  8
Sichtbar (ISO)
100
AcDbLine
 10
42.81922101277785
 20
103.8065392902917
 30
0.0
 11
44.15830832252961
 21
103.8065392902917
 31
0.0
  0
LINE
  5
250
330
71
100
AcDbEntity
  8
Sichtbar (ISO)
100
AcDbLine
 10
29.15830832252961
 20
108.0178641556967
 30
0.0
 11
32.90830832252961
 21
108.0178641556967
 31
0.0
  0
LINE
  5
251
330
71
100
AcDbEntity
  8
Sichtbar (ISO)
100
AcDbLine
 10
29.15830832252961
 20
107.7291890211018
 30
0.0
 11
30.49739563228138
 21
107.7291890211018
 31
0.0
  0
LINE
  5
252
330
71
100
AcDbEntity
  8
Sichtbar (ISO)
100
AcDbLine
 10
32.90830832252961
 20
108.0178641556967
 30
0.0
 11
40.40830832252961
 21
108.0178641556967
 31
0.0
  0
LINE
  5
253
330
71
100
AcDbEntity
  8
Sichtbar (ISO)
100
AcDbLine
 10
35.31922101277782
 20
107.7291890211018
 30
0.0
 11
37.9973956322814
 21
107.7291890211018
 31
0.0
  0
LINE
  5
254
330
71
100
AcDbEntity
  8
Sichtbar (ISO)
100
AcDbLine
 10
40.40830832252961
 20
108.0178641556967
 30
0.0
 11
44.15830832252961
 21
108.0178641556967
 31
0.0
  0
LINE
  5
255
330
71
100
AcDbEntity
  8
Sichtbar (ISO)
100
AcDbLine
 10
42.81922101277785
 20
107.7291890211018
 30
0.0
 11
44.15830832252961
 21
107.7291890211018
 31
0.0
  0
LINE
  5
256
330
71
100
AcDbEntity
  8
Sichtbar (ISO)
100
AcDbLine
 10
29.75830832252962
 20
102.5178641556967
 30
0.0
 11
43.55830832252961
 21
102.5178641556967
 31
0.0
  0
LINE
  5
257
330
71
100
AcDbEntity
  8
Sichtbar (ISO)
100
AcDbLine
 10
30.07980832252961
 20
100.5178641556967
 30
0.0
 11
43.23680832252961
 21
100.5178641556967
 31
0.0
  0
LINE
  5
258
330
71
100
AcDbEntity
  8
Sichtbar (ISO)
100
AcDbLine
 10
30.07980832252961
 20
96.37386415569679
 30
0.0
 11
43.23680832252961
 21
96.37386415569679
 31
0.0
  0
LINE
  5
259
330
71
100
AcDbEntity
  8
Sichtbar (ISO)
100
AcDbLine
 10
30.93580832252961
 20
95.51786415569678
 30
0.0
 11
42.3808083225296
 21
95.51786415569678
 31
0.0
  0
LINE
  5
25A
330
71
100
AcDbEntity
  8
Sichtbar (ISO)
100
AcDbLine
 10
41.15830832252961
 20
118.5178641556968
 30
0.0
 11
41.15830832252961
 21
108.0178641556967
 31
0.0
  0
LINE
  5
25B
330
71
100
AcDbEntity
  8
Sichtbar (ISO)
100
AcDbLine
 10
32.15830832252962
 20
114.0178641556967
 30
0.0
 11
32.15830832252962
 21
108.0178641556967
 31
0.0
  0
LINE
  5
25C
330
71
100
AcDbEntity
  8
Sichtbar (ISO)
100
AcDbLine
 10
43.55830832252961
 20
103.5178641556967
 30
0.0
 11
43.55830832252961
 21
102.5178641556967
 31
0.0
  0
LINE
  5
25D
330
71
100
AcDbEntity
  8
Sichtbar (ISO)
100
AcDbLine
 10
29.75830832252962
 20
103.5178641556967
 30
0.0
 11
29.75830832252962
 21
102.5178641556967
 31
0.0
  0
ARC
  5
25E
330
71
100
AcDbEntity
  8
Sichtbar (ISO)
100
AcDbCircle
 10
31.05830832252961
 20
102.7816822748615
 30
0.0
 40
0.8899999999998065
100
AcDbArc
 50
197.2429974760547
 51
270.0
  0
ARC
  5
25F
330
71
100
AcDbEntity
  8
Sichtbar (ISO)
100
AcDbCircle
 10
42.25830832252961
 20
102.7816822748615
 30
0.0
 40
0.8899999999998065
100
AcDbArc
 50
269.9999999999994
 51
342.7570025239452
  0
LINE
  5
260
330
71
100
AcDbEntity
  8
Sichtbar (ISO)
100
AcDbLine
 10
31.05830832252961
 20
101.8916822748618
 30
0.0
 11
42.25830832252961
 21
101.8916822748618
 31
0.0
  0
LINE
  5
261
330
71
100
AcDbEntity
  8
Sichtbar (ISO)
100
AcDbLine
 10
41.40830832252961
 20
101.8916822748618
 30
0.0
 11
41.40830832252961
 21
101.7467542036667
 31
0.0
  0
LINE
  5
262
330
71
100
AcDbEntity
  8
Sichtbar (ISO)
100
AcDbLine
 10
31.90830832252962
 20
101.8916822748618
 30
0.0
 11
31.90830832252962
 21
101.7467542036667
 31
0.0
  0
ARC
  5
263
330
71
100
AcDbEntity
  8
Sichtbar (ISO)
100
AcDbCircle
 10
31.60830832253052
 20
101.7467542036665
 30
0.0
 40
0.2999999999990904
100
AcDbArc
 50
299.9999999999007
 51
0.0
  0
ARC
  5
264
330
71
100
AcDbEntity
  8
Sichtbar (ISO)
100
AcDbCircle
 10
41.7083083225287
 20
101.7467542036665
 30
0.0
 40
0.2999999999990905
100
AcDbArc
 50
180.0
 51
240.0000000001
  0
LINE
  5
265
330
71
100
AcDbEntity
  8
Sichtbar (ISO)
100
AcDbLine
 10
41.55830832252961
 20
101.4869465825317
 30
0.0
 11
43.23680832252961
 21
100.5178641556967
 31
0.0
  0
LINE
  5
266
330
71
100
AcDbEntity
  8
Sichtbar (ISO)
100
AcDbLine
 10
31.75830832252961
 20
101.4869465825317
 30
0.0
 11
30.07980832252961
 21
100.5178641556967
 31
0.0
  0
LINE
  5
267
330
71
100
AcDbEntity
  8
Sichtbar (ISO)
100
AcDbLine
 10
43.23680832252961
 20
100.5178641556967
 30
0.0
 11
43.23680832252961
 21
96.37386415569679
 31
0.0
  0
LINE
  5
268
330
71
100
AcDbEntity
  8
Sichtbar (ISO)
100
AcDbLine
 10
30.07980832252961
 20
100.5178641556967
 30
0.0
 11
30.07980832252961
 21
96.37386415569679
 31
0.0
  0
LINE
  5
269
330
71
100
AcDbEntity
  8
Sichtbar (ISO)
100
AcDbLine
 10
30.93580832252961
 20
95.51786415569678
 30
0.0
 11
30.07980832252961
 21
96.37386415569679
 31
0.0
  0
LINE
  5
26A
330
71
100
AcDbEntity
  8
Sichtbar (ISO)
100
AcDbLine
 10
42.3808083225296
 20
95.51786415569678
 30
0.0
 11
43.23680832252961
 21
96.37386415569679
 31
0.0
  0
LINE
  5
26B
330
71
100
AcDbEntity
  8
Sichtbar (ISO)
100
AcDbLine
 10
34.65830832252962
 20
114.5178641556968
 30
0.0
 11
34.65830832252962
 21
116.5178641556968
 31
0.0
  0
LINE
  5
26C
330
71
100
AcDbEntity
  8
Sichtbar (ISO)
100
AcDbLine
 10
38.65830832252962
 20
114.5178641556968
 30
0.0
 11
36.65830832252961
 21
114.5178641556968
 31
0.0
  0
LINE
  5
26D
330
71
100
AcDbEntity
  8
Sichtbar (ISO)
100
AcDbLine
 10
36.65830832252961
 20
114.5178641556968
 30
0.0
 11
34.65830832252962
 21
114.5178641556968
 31
0.0
  0
LINE
  5
26E
330
71
100
AcDbEntity
  8
Sichtbar (ISO)
100
AcDbLine
 10
38.65830832252962
 20
120.5178641556967
 30
0.0
 11
38.65830832252962
 21
114.5178641556968
 31
0.0
  0
LINE
  5
26F
330
71
100
AcDbEntity
  8
Sichtbar (ISO)
100
AcDbLine
 10
34.65830832252962
 20
116.5178641556968
 30
0.0
 11
32.65830832252961
 21
116.5178641556968
 31
0.0
  0
LINE
  5
270
330
71
100
AcDbEntity
  8
Sichtbar (ISO)
100
AcDbLine
 10
32.65830832252961
 20
120.5178641556967
 30
0.0
 11
38.65830832252962
 21
120.5178641556967
 31
0.0
  0
LINE
  5
271
330
71
100
AcDbEntity
  8
Sichtbar (ISO)
100
AcDbLine
 10
32.65830832252961
 20
118.5178641556968
 30
0.0
 11
32.65830832252961
 21
120.5178641556967
 31
0.0
  0
LINE
  5
272
330
71
100
AcDbEntity
  8
Sichtbar (ISO)
100
AcDbLine
 10
32.65830832252961
 20
116.5178641556968
 30
0.0
 11
32.65830832252961
 21
118.5178641556968
 31
0.0
  0
LINE
  5
273
330
71
100
AcDbEntity
  8
Sichtbar (ISO)
100
AcDbLine
 10
32.15830832252962
 20
114.0178641556967
 30
0.0
 11
34.65830832252962
 21
116.5178641556968
 31
0.0
  0
LINE
  5
274
330
71
100
AcDbEntity
  8
Sichtbar (ISO)
100
AcDbLine
 10
31.15830832252966
 20
114.0178641556967
 30
0.0
 11
31.15830832252957
 21
123.0178641556967
 31
0.0
  0
LINE
  5
275
330
71
100
AcDbEntity
  8
Sichtbar (ISO)
100
AcDbLine
 10
19.45830832252966
 20
113.0178641556967
 30
0.0
 11
19.45830832252956
 21
124.0178641556967
 31
0.0
  0
LINE
  5
276
330
71
100
AcDbEntity
  8
Sichtbar (ISO)
100
AcDbLine
 10
19.15830832252965
 20
113.3178641556968
 30
0.0
 11
19.15830832252957
 21
123.7178641556967
 31
0.0
  0
LINE
  5
277
330
71
100
AcDbEntity
  8
Sichtbar (ISO)
100
AcDbLine
 10
24.65830832252966
 20
113.0178641556967
 30
0.0
 11
24.65830832252957
 21
124.0178641556967
 31
0.0
  0
LINE
  5
278
330
71
100
AcDbEntity
  8
Sichtbar (ISO)
100
AcDbLine
 10
25.50830832252966
 20
112.1678641556967
 30
0.0
 11
25.50830832252956
 21
124.8678641556967
 31
0.0
  0
LINE
  5
279
330
71
100
AcDbEntity
  8
Sichtbar (ISO)
100
AcDbLine
 10
30.09021032452886
 20
112.1678641556967
 30
0.0
 11
30.09021032452876
 21
124.8678641556967
 31
0.0
  0
ARC
  5
27A
330
71
100
AcDbEntity
  8
Sichtbar (ISO)
100
AcDbCircle
 10
36.65830832252974
 20
118.5178641556966
 30
0.0
 40
4.5
100
AcDbArc
 50
0.0
 51
90.00000000000161
  0
LINE
  5
27B
330
71
100
AcDbEntity
  8
Sichtbar (ISO)
100
AcDbLine
 10
31.15830832252961
 20
123.0178641556967
 30
0.0
 11
36.65830832252961
 21
123.0178641556967
 31
0.0
  0
LINE
  5
27C
330
71
100
AcDbEntity
  8
Sichtbar (ISO)
100
AcDbLine
 10
31.15830832252961
 20
114.0178641556967
 30
0.0
 11
32.15830832252962
 21
114.0178641556967
 31
0.0
  0
LINE
  5
27D
330
71
100
AcDbEntity
  8
Sichtbar (ISO)
100
AcDbLine
 10
19.15830832252961
 20
123.7178641556967
 30
0.0
 11
19.45830832252961
 21
124.0178641556967
 31
0.0
  0
LINE
  5
27E
330
71
100
AcDbEntity
  8
Sichtbar (ISO)
100
AcDbLine
 10
19.15830832252961
 20
113.3178641556968
 30
0.0
 11
19.45830832252961
 21
113.0178641556967
 31
0.0
  0
LINE
  5
27F
330
71
100
AcDbEntity
  8
Sichtbar (ISO)
100
AcDbLine
 10
19.45830832252962
 20
124.0178641556967
 30
0.0
 11
24.65830832252962
 21
124.0178641556967
 31
0.0
  0
LINE
  5
280
330
71
100
AcDbEntity
  8
Sichtbar (ISO)
100
AcDbLine
 10
19.45830832252961
 20
113.0178641556967
 30
0.0
 11
24.65830832252962
 21
113.0178641556967
 31
0.0
  0
LINE
  5
281
330
71
100
AcDbEntity
  8
Sichtbar (ISO)
100
AcDbLine
 10
24.65830832252962
 20
124.0178641556967
 30
0.0
 11
25.50830832252961
 21
124.8678641556967
 31
0.0
  0
LINE
  5
282
330
71
100
AcDbEntity
  8
Sichtbar (ISO)
100
AcDbLine
 10
24.65830832252962
 20
113.0178641556967
 30
0.0
 11
25.50830832252961
 21
112.1678641556967
 31
0.0
  0
LINE
  5
283
330
71
100
AcDbEntity
  8
Sichtbar (ISO)
100
AcDbLine
 10
25.50830832252961
 20
124.8678641556967
 30
0.0
 11
30.09021032452881
 21
124.8678641556967
 31
0.0
  0
LINE
  5
284
330
71
100
AcDbEntity
  8
Sichtbar (ISO)
100
AcDbLine
 10
25.50830832252961
 20
112.1678641556967
 30
0.0
 11
30.09021032452882
 21
112.1678641556967
 31
0.0
  0
LINE
  5
285
330
71
100
AcDbEntity
  8
Sichtbar (ISO)
100
AcDbLine
 10
31.15830832252961
 20
114.0178641556967
 30
0.0
 11
30.09021032452882
 21
112.1678641556967
 31
0.0
  0
LINE
  5
286
330
71
100
AcDbEntity
  8
Sichtbar (ISO)
100
AcDbLine
 10
31.15830832252961
 20
123.0178641556967
 30
0.0
 11
30.09021032452881
 21
124.8678641556967
 31
0.0
  0
LINE
  5
287
330
71
100
AcDbEntity
  8
Sichtbar (ISO)
100
AcDbLine
 10
17.15830832252961
 20
113.1678641556967
 30
0.0
 11
17.15830832252961
 21
123.8678641556967
 31
0.0
  0
LINE
  5
288
330
71
100
AcDbEntity
  8
Sichtbar (ISO)
100
AcDbLine
 10
16.65830832252961
 20
114.0338895594811
 30
0.0
 11
16.65830832252961
 21
123.0018387519123
 31
0.0
  0
LINE
  5
289
330
71
100
AcDbEntity
  8
Sichtbar (ISO)
100
AcDbLine
 10
18.05830832252961
 20
113.1678641556967
 30
0.0
 11
18.05830832252961
 21
123.8678641556967
 31
0.0
  0
LINE
  5
28A
330
71
100
AcDbEntity
  8
Sichtbar (ISO)
100
AcDbLine
 10
18.25830832252961
 20
113.3678641556967
 30
0.0
 11
18.25830832252961
 21
123.6678641556967
 31
0.0
  0
LINE
  5
28B
330
71
100
AcDbEntity
  8
Sichtbar (ISO)
100
AcDbLine
 10
18.25830832252961
 20
123.0178641556967
 30
0.0
 11
19.15830832252961
 21
123.0178641556967
 31
0.0
  0
LINE
  5
28C
330
71
100
AcDbEntity
  8
Sichtbar (ISO)
100
AcDbLine
 10
18.25830832252961
 20
114.0178641556967
 30
0.0
 11
19.15830832252961
 21
114.0178641556967
 31
0.0
  0
LINE
  5
28D
330
71
100
AcDbEntity
  8
Sichtbar (ISO)
100
AcDbLine
 10
16.65830832252961
 20
123.0018387519123
 30
0.0
 11
17.15830832252961
 21
123.8678641556967
 31
0.0
  0
LINE
  5
28E
330
71
100
AcDbEntity
  8
Sichtbar (ISO)
100
AcDbLine
 10
16.65830832252961
 20
114.0338895594811
 30
0.0
 11
17.15830832252961
 21
113.1678641556967
 31
0.0
  0
LINE
  5
28F
330
71
100
AcDbEntity
  8
Sichtbar (ISO)
100
AcDbLine
 10
17.15830832252961
 20
123.8678641556967
 30
0.0
 11
18.05830832252961
 21
123.8678641556967
 31
0.0
  0
LINE
  5
290
330
71
100
AcDbEntity
  8
Sichtbar (ISO)
100
AcDbLine
 10
17.15830832252961
 20
113.1678641556967
 30
0.0
 11
18.05830832252961
 21
113.1678641556967
 31
0.0
  0
LINE
  5
291
330
71
100
AcDbEntity
  8
Sichtbar (ISO)
100
AcDbLine
 10
18.25830832252961
 20
113.3678641556967
 30
0.0
 11
18.05830832252961
 21
113.1678641556967
 31
0.0
  0
LINE
  5
292
330
71
100
AcDbEntity
  8
Sichtbar (ISO)
100
AcDbLine
 10
18.25830832252961
 20
123.6678641556967
 30
0.0
 11
18.05830832252961
 21
123.8678641556967
 31
0.0
  0
LINE
  5
293
330
71
100
AcDbEntity
  8
Sichtbar schmal (ISO)
100
AcDbLine
 10
42.50580832252961
 20
95.64286415569677
 30
0.0
 11
42.50580832252961
 21
100.9399072024744
 31
0.0
  0
LINE
  5
294
330
71
100
AcDbEntity
  8
Sichtbar schmal (ISO)
100
AcDbLine
 10
30.81080832252962
 20
100.9399072024744
 30
0.0
 11
30.81080832252962
 21
95.64286415569677
 31
0.0
  0
SPLINE
  5
295
330
71
100
AcDbEntity
  8
Sichtbar (ISO)
100
AcDbSpline
210
0.0
220
0.0
230
1.0
 70
    12
 71
     2
 72
     6
 73
     3
 74
     0
 42
0.000000001
 43
0.0000000001
 40
0.280231394984324
 40
0.280231394984324
 40
0.280231394984324
 40
0.5604627899686481
 40
0.5604627899686481
 40
0.5604627899686481
 10
78.98192079679734
 20
108.0178641556967
 30
0.0
 41
1.0
 10
79.65544067939808
 20
108.0178641556967
 30
0.0
 41
1.01653004546516
 10
80.37386188750556
 20
107.7291890211018
 30
0.0
 41
1.0
  0
SPLINE
  5
296
330
71
100
AcDbEntity
  8
Sichtbar (ISO)
100
AcDbSpline
210
0.0
220
0.0
230
1.0
 70
    12
 71
     2
 72
     6
 73
     3
 74
     0
 42
0.000000001
 43
0.0000000001
 40
0.0
 40
0.0
 40
0.0
 40
0.280231394984324
 40
0.280231394984324
 40
0.280231394984324
 10
77.58997970608914
 20
107.7291890211018
 30
0.0
 41
1.0
 10
78.30840091419659
 20
108.0178641556967
 30
0.0
 41
1.016530045465155
 10
78.98192079679734
 20
108.0178641556967
 30
0.0
 41
1.0
  0
LINE
  5
297
330
71
100
AcDbEntity
  8
Sichtbar (ISO)
100
AcDbLine
 10
77.58997970608914
 20
103.8065392902917
 30
0.0
 11
77.58997970608914
 21
107.7291890211018
 31
0.0
  0
SPLINE
  5
298
330
71
100
AcDbEntity
  8
Sichtbar (ISO)
100
AcDbSpline
210
0.0
220
0.0
230
1.0
 70
    12
 71
     2
 72
     6
 73
     3
 74
     0
 42
0.000000001
 43
0.0000000001
 40
0.2802313949843247
 40
0.2802313949843247
 40
0.2802313949843247
 40
0.5604627899686494
 40
0.5604627899686494
 40
0.5604627899686494
 10
78.98192079679734
 20
103.5178641556967
 30
0.0
 41
1.0
 10
78.30840091419659
 20
103.5178641556967
 30
0.0
 41
1.016530045465194
 10
77.58997970608914
 20
103.8065392902917
 30
0.0
 41
1.0
  0
SPLINE
  5
299
330
71
100
AcDbEntity
  8
Sichtbar (ISO)
100
AcDbSpline
210
0.0
220
0.0
230
1.0
 70
    12
 71
     2
 72
     6
 73
     3
 74
     0
 42
0.000000001
 43
0.0000000001
 40
0.0
 40
0.0
 40
0.0
 40
0.2802313949843247
 40
0.2802313949843247
 40
0.2802313949843247
 10
80.37386188750556
 20
103.8065392902917
 30
0.0
 41
1.0
 10
79.65544067939808
 20
103.5178641556967
 30
0.0
 41
1.016530045465194
 10
78.98192079679734
 20
103.5178641556967
 30
0.0
 41
1.0
  0
LINE
  5
29A
330
71
100
AcDbEntity
  8
Sichtbar (ISO)
100
AcDbLine
 10
80.37386188750556
 20
107.7291890211018
 30
0.0
 11
80.37386188750556
 21
103.8065392902917
 31
0.0
  0
SPLINE
  5
29B
330
71
100
AcDbEntity
  8
Sichtbar (ISO)
100
AcDbSpline
210
0.0
220
0.0
230
1.0
 70
    12
 71
     2
 72
     6
 73
     3
 74
     0
 42
0.000000001
 43
0.0000000001
 40
0.2802313949843266
 40
0.2802313949843266
 40
0.2802313949843266
 40
0.5604627899686533
 40
0.5604627899686533
 40
0.5604627899686533
 10
72.48673026841292
 20
108.0178641556967
 30
0.0
 41
1.0
 10
73.83377003361374
 20
108.0178641556967
 30
0.0
 41
1.01653004546513
 10
75.27061244982793
 20
107.7291890211018
 30
0.0
 41
1.0
  0
SPLINE
  5
29C
330
71
100
AcDbEntity
  8
Sichtbar (ISO)
100
AcDbSpline
210
0.0
220
0.0
230
1.0
 70
    12
 71
     2
 72
     6
 73
     3
 74
     0
 42
0.000000001
 43
0.0000000001
 40
0.0
 40
0.0
 40
0.0
 40
0.2802313949843266
 40
0.2802313949843266
 40
0.2802313949843266
 10
69.70284808699793
 20
107.7291890211018
 30
0.0
 41
1.0
 10
71.13969050321212
 20
108.0178641556967
 30
0.0
 41
1.01653004546513
 10
72.48673026841292
 20
108.0178641556967
 30
0.0
 41
1.0
  0
LINE
  5
29D
330
71
100
AcDbEntity
  8
Sichtbar (ISO)
100
AcDbLine
 10
69.70284808699791
 20
103.8065392902917
 30
0.0
 11
69.70284808699791
 21
107.7291890211018
 31
0.0
  0
SPLINE
  5
29E
330
71
100
AcDbEntity
  8
Sichtbar (ISO)
100
AcDbSpline
210
0.0
220
0.0
230
1.0
 70
    12
 71
     2
 72
     6
 73
     3
 74
     0
 42
0.000000001
 43
0.0000000001
 40
0.2802313949843272
 40
0.2802313949843272
 40
0.2802313949843272
 40
0.5604627899686545
 40
0.5604627899686545
 40
0.5604627899686545
 10
72.48673026841292
 20
103.5178641556967
 30
0.0
 41
1.0
 10
71.13969050321212
 20
103.5178641556967
 30
0.0
 41
1.016530045465098
 10
69.70284808699791
 20
103.8065392902917
 30
0.0
 41
1.0
  0
SPLINE
  5
29F
330
71
100
AcDbEntity
  8
Sichtbar (ISO)
100
AcDbSpline
210
0.0
220
0.0
230
1.0
 70
    12
 71
     2
 72
     6
 73
     3
 74
     0
 42
0.000000001
 43
0.0000000001
 40
0.0
 40
0.0
 40
0.0
 40
0.2802313949843272
 40
0.2802313949843272
 40
0.2802313949843272
 10
75.27061244982795
 20
103.8065392902917
 30
0.0
 41
1.0
 10
73.83377003361374
 20
103.5178641556967
 30
0.0
 41
1.016530045465098
 10
72.48673026841292
 20
103.5178641556967
 30
0.0
 41
1.0
  0
LINE
  5
2A0
330
71
100
AcDbEntity
  8
Sichtbar (ISO)
100
AcDbLine
 10
75.27061244982795
 20
107.7291890211018
 30
0.0
 11
75.27061244982795
 21
103.8065392902917
 31
0.0
  0
SPLINE
  5
2A1
330
71
100
AcDbEntity
  8
Sichtbar (ISO)
100
AcDbSpline
210
0.0
220
0.0
230
1.0
 70
    12
 71
     2
 72
     6
 73
     3
 74
     0
 42
0.000000001
 43
0.0000000001
 40
0.2802313949843241
 40
0.2802313949843241
 40
0.2802313949843241
 40
0.5604627899686481
 40
0.5604627899686481
 40
0.5604627899686481
 10
65.99153974003074
 20
108.0178641556967
 30
0.0
 41
1.0
 10
66.66505962263079
 20
108.0178641556967
 30
0.0
 41
1.016530045465164
 10
67.38348083073752
 20
107.7291890211018
 30
0.0
 41
1.0
  0
SPLINE
  5
2A2
330
71
100
AcDbEntity
  8
Sichtbar (ISO)
100
AcDbSpline
210
0.0
220
0.0
230
1.0
 70
    12
 71
     2
 72
     6
 73
     3
 74
     0
 42
0.000000001
 43
0.0000000001
 40
0.0
 40
0.0
 40
0.0
 40
0.2802313949843241
 40
0.2802313949843241
 40
0.2802313949843241
 10
64.59959864932398
 20
107.7291890211018
 30
0.0
 41
1.0
 10
65.31801985743071
 20
108.0178641556967
 30
0.0
 41
1.016530045465158
 10
65.99153974003074
 20
108.0178641556967
 30
0.0
 41
1.0
  0
LINE
  5
2A3
330
71
100
AcDbEntity
  8
Sichtbar (ISO)
100
AcDbLine
 10
64.59959864932398
 20
103.8065392902917
 30
0.0
 11
64.59959864932398
 21
107.7291890211018
 31
0.0
  0
SPLINE
  5
2A4
330
71
100
AcDbEntity
  8
Sichtbar (ISO)
100
AcDbSpline
210
0.0
220
0.0
230
1.0
 70
    12
 71
     2
 72
     6
 73
     3
 74
     0
 42
0.000000001
 43
0.0000000001
 40
0.280231394984324
 40
0.280231394984324
 40
0.280231394984324
 40
0.560462789968648
 40
0.560462789968648
 40
0.560462789968648
 10
65.99153974003074
 20
103.5178641556967
 30
0.0
 41
1.0
 10
65.31801985743071
 20
103.5178641556967
 30
0.0
 41
1.01653004546519
 10
64.59959864932398
 20
103.8065392902917
 30
0.0
 41
1.0
  0
SPLINE
  5
2A5
330
71
100
AcDbEntity
  8
Sichtbar (ISO)
100
AcDbSpline
210
0.0
220
0.0
230
1.0
 70
    12
 71
     2
 72
     6
 73
     3
 74
     0
 42
0.000000001
 43
0.0000000001
 40
0.0
 40
0.0
 40
0.0
 40
0.280231394984324
 40
0.280231394984324
 40
0.280231394984324
 10
67.38348083073752
 20
103.8065392902917
 30
0.0
 41
1.0
 10
66.66505962263079
 20
103.5178641556967
 30
0.0
 41
1.016530045465196
 10
65.99153974003074
 20
103.5178641556967
 30
0.0
 41
1.0
  0
LINE
  5
2A6
330
71
100
AcDbEntity
  8
Sichtbar (ISO)
100
AcDbLine
 10
67.38348083073754
 20
107.7291890211018
 30
0.0
 11
67.38348083073754
 21
103.8065392902917
 31
0.0
  0
LINE
  5
2A7
330
71
100
AcDbEntity
  8
Sichtbar (ISO)
100
AcDbLine
 10
64.48673026841515
 20
103.8065392902917
 30
0.0
 11
64.59959864932398
 21
103.8065392902917
 31
0.0
  0
LINE
  5
2A8
330
71
100
AcDbEntity
  8
Sichtbar (ISO)
100
AcDbLine
 10
64.98673026841514
 20
103.5178641556967
 30
0.0
 11
65.99153974003076
 21
103.5178641556967
 31
0.0
  0
LINE
  5
2A9
330
71
100
AcDbEntity
  8
Sichtbar (ISO)
100
AcDbLine
 10
67.38348083073752
 20
103.8065392902917
 30
0.0
 11
69.70284808699791
 21
103.8065392902917
 31
0.0
  0
LINE
  5
2AA
330
71
100
AcDbEntity
  8
Sichtbar (ISO)
100
AcDbLine
 10
65.99153974003076
 20
103.5178641556967
 30
0.0
 11
72.48673026841292
 21
103.5178641556967
 31
0.0
  0
LINE
  5
2AB
330
71
100
AcDbEntity
  8
Sichtbar (ISO)
100
AcDbLine
 10
75.27061244982795
 20
103.8065392902917
 30
0.0
 11
77.58997970608913
 21
103.8065392902917
 31
0.0
  0
LINE
  5
2AC
330
71
100
AcDbEntity
  8
Sichtbar (ISO)
100
AcDbLine
 10
72.48673026841292
 20
103.5178641556967
 30
0.0
 11
78.98192079679731
 21
103.5178641556967
 31
0.0
  0
LINE
  5
2AD
330
71
100
AcDbEntity
  8
Sichtbar (ISO)
100
AcDbLine
 10
80.37386188750556
 20
103.8065392902917
 30
0.0
 11
80.48673026841512
 21
103.8065392902917
 31
0.0
  0
LINE
  5
2AE
330
71
100
AcDbEntity
  8
Sichtbar (ISO)
100
AcDbLine
 10
78.98192079679731
 20
103.5178641556967
 30
0.0
 11
79.98673026841515
 21
103.5178641556967
 31
0.0
  0
LINE
  5
2AF
330
71
100
AcDbEntity
  8
Sichtbar (ISO)
100
AcDbLine
 10
64.98673026841514
 20
108.0178641556967
 30
0.0
 11
65.99153974003076
 21
108.0178641556967
 31
0.0
  0
LINE
  5
2B0
330
71
100
AcDbEntity
  8
Sichtbar (ISO)
100
AcDbLine
 10
64.48673026841515
 20
107.7291890211018
 30
0.0
 11
64.59959864932398
 21
107.7291890211018
 31
0.0
  0
LINE
  5
2B1
330
71
100
AcDbEntity
  8
Sichtbar (ISO)
100
AcDbLine
 10
65.99153974003076
 20
108.0178641556967
 30
0.0
 11
72.48673026841292
 21
108.0178641556967
 31
0.0
  0
LINE
  5
2B2
330
71
100
AcDbEntity
  8
Sichtbar (ISO)
100
AcDbLine
 10
67.38348083073752
 20
107.7291890211018
 30
0.0
 11
69.70284808699791
 21
107.7291890211018
 31
0.0
  0
LINE
  5
2B3
330
71
100
AcDbEntity
  8
Sichtbar (ISO)
100
AcDbLine
 10
72.48673026841292
 20
108.0178641556967
 30
0.0
 11
78.98192079679731
 21
108.0178641556967
 31
0.0
  0
LINE
  5
2B4
330
71
100
AcDbEntity
  8
Sichtbar (ISO)
100
AcDbLine
 10
75.27061244982795
 20
107.7291890211018
 30
0.0
 11
77.58997970608913
 21
107.7291890211018
 31
0.0
  0
LINE
  5
2B5
330
71
100
AcDbEntity
  8
Sichtbar (ISO)
100
AcDbLine
 10
78.98192079679734
 20
108.0178641556967
 30
0.0
 11
79.98673026841515
 21
108.0178641556967
 31
0.0
  0
LINE
  5
2B6
330
71
100
AcDbEntity
  8
Sichtbar (ISO)
100
AcDbLine
 10
80.37386188750556
 20
107.7291890211018
 30
0.0
 11
80.48673026841512
 21
107.7291890211018
 31
0.0
  0
LINE
  5
2B7
330
71
100
AcDbEntity
  8
Sichtbar (ISO)
100
AcDbLine
 10
65.58673026841518
 20
102.5178641556967
 30
0.0
 11
79.38673026841515
 21
102.5178641556967
 31
0.0
  0
LINE
  5
2B8
330
71
100
AcDbEntity
  8
Sichtbar (ISO)
100
AcDbLine
 10
65.90823026841515
 20
100.5178641556967
 30
0.0
 11
79.06523026841515
 21
100.5178641556967
 31
0.0
  0
LINE
  5
2B9
330
71
100
AcDbEntity
  8
Sichtbar (ISO)
100
AcDbLine
 10
65.90823026841515
 20
96.37386415569679
 30
0.0
 11
79.06523026841515
 21
96.37386415569679
 31
0.0
  0
LINE
  5
2BA
330
71
100
AcDbEntity
  8
Sichtbar (ISO)
100
AcDbLine
 10
66.76423026841516
 20
95.51786415569678
 30
0.0
 11
78.20923026841516
 21
95.51786415569678
 31
0.0
  0
LINE
  5
2BB
330
71
100
AcDbEntity
  8
Sichtbar (ISO)
100
AcDbLine
 10
64.98673026841514
 20
103.5178641556967
 30
0.0
 11
64.48673026841515
 21
103.8065392902917
 31
0.0
  0
LINE
  5
2BC
330
71
100
AcDbEntity
  8
Sichtbar (ISO)
100
AcDbLine
 10
79.98673026841515
 20
103.5178641556967
 30
0.0
 11
80.48673026841516
 21
103.8065392902917
 31
0.0
  0
LINE
  5
2BD
330
71
100
AcDbEntity
  8
Sichtbar (ISO)
100
AcDbLine
 10
64.98673026841514
 20
108.0178641556967
 30
0.0
 11
64.48673026841515
 21
107.7291890211018
 31
0.0
  0
LINE
  5
2BE
330
71
100
AcDbEntity
  8
Sichtbar (ISO)
100
AcDbLine
 10
79.98673026841515
 20
108.0178641556967
 30
0.0
 11
80.48673026841516
 21
107.7291890211018
 31
0.0
  0
LINE
  5
2BF
330
71
100
AcDbEntity
  8
Sichtbar (ISO)
100
AcDbLine
 10
64.48673026841515
 20
107.7291890211018
 30
0.0
 11
64.48673026841515
 21
103.8065392902917
 31
0.0
  0
LINE
  5
2C0
330
71
100
AcDbEntity
  8
Sichtbar (ISO)
100
AcDbLine
 10
80.48673026841516
 20
107.7291890211018
 30
0.0
 11
80.48673026841516
 21
103.8065392902917
 31
0.0
  0
LINE
  5
2C1
330
71
100
AcDbEntity
  8
Sichtbar (ISO)
100
AcDbLine
 10
76.98673026841515
 20
114.0376297868272
 30
0.0
 11
76.98673026841515
 21
108.0178641556967
 31
0.0
  0
LINE
  5
2C2
330
71
100
AcDbEntity
  8
Sichtbar (ISO)
100
AcDbLine
 10
67.98673026841516
 20
114.0376297868272
 30
0.0
 11
67.98673026841516
 21
108.0178641556967
 31
0.0
  0
LINE
  5
2C3
330
71
100
AcDbEntity
  8
Sichtbar (ISO)
100
AcDbLine
 10
79.38673026841517
 20
103.5178641556967
 30
0.0
 11
79.38673026841517
 21
102.5178641556967
 31
0.0
  0
LINE
  5
2C4
330
71
100
AcDbEntity
  8
Sichtbar (ISO)
100
AcDbLine
 10
65.58673026841515
 20
103.5178641556967
 30
0.0
 11
65.58673026841515
 21
102.5178641556967
 31
0.0
  0
ARC
  5
2C5
330
71
100
AcDbEntity
  8
Sichtbar (ISO)
100
AcDbCircle
 10
66.88673026841515
 20
102.7816822748615
 30
0.0
 40
0.8899999999998065
100
AcDbArc
 50
197.2429974760547
 51
270.0
  0
ARC
  5
2C6
330
71
100
AcDbEntity
  8
Sichtbar (ISO)
100
AcDbCircle
 10
78.08673026841518
 20
102.7816822748615
 30
0.0
 40
0.8899999999998065
100
AcDbArc
 50
269.9999999999994
 51
342.7570025239452
  0
LINE
  5
2C7
330
71
100
AcDbEntity
  8
Sichtbar (ISO)
100
AcDbLine
 10
66.88673026841515
 20
101.8916822748618
 30
0.0
 11
78.08673026841518
 21
101.8916822748618
 31
0.0
  0
LINE
  5
2C8
330
71
100
AcDbEntity
  8
Sichtbar (ISO)
100
AcDbLine
 10
77.23673026841516
 20
101.8916822748618
 30
0.0
 11
77.23673026841516
 21
101.7467542036667
 31
0.0
  0
LINE
  5
2C9
330
71
100
AcDbEntity
  8
Sichtbar (ISO)
100
AcDbLine
 10
67.73673026841516
 20
101.8916822748618
 30
0.0
 11
67.73673026841516
 21
101.7467542036667
 31
0.0
  0
ARC
  5
2CA
330
71
100
AcDbEntity
  8
Sichtbar (ISO)
100
AcDbCircle
 10
67.43673026841607
 20
101.7467542036665
 30
0.0
 40
0.2999999999990904
100
AcDbArc
 50
299.9999999998999
 51
0.0
  0
ARC
  5
2CB
330
71
100
AcDbEntity
  8
Sichtbar (ISO)
100
AcDbCircle
 10
77.53673026841425
 20
101.7467542036665
 30
0.0
 40
0.2999999999990905
100
AcDbArc
 50
180.0
 51
240.0000000001
  0
LINE
  5
2CC
330
71
100
AcDbEntity
  8
Sichtbar (ISO)
100
AcDbLine
 10
77.38673026841515
 20
101.4869465825317
 30
0.0
 11
79.06523026841515
 21
100.5178641556967
 31
0.0
  0
LINE
  5
2CD
330
71
100
AcDbEntity
  8
Sichtbar (ISO)
100
AcDbLine
 10
67.58673026841515
 20
101.4869465825317
 30
0.0
 11
65.90823026841515
 21
100.5178641556967
 31
0.0
  0
LINE
  5
2CE
330
71
100
AcDbEntity
  8
Sichtbar (ISO)
100
AcDbLine
 10
79.06523026841515
 20
100.5178641556967
 30
0.0
 11
79.06523026841515
 21
96.37386415569679
 31
0.0
  0
LINE
  5
2CF
330
71
100
AcDbEntity
  8
Sichtbar (ISO)
100
AcDbLine
 10
65.90823026841515
 20
100.5178641556967
 30
0.0
 11
65.90823026841515
 21
96.37386415569679
 31
0.0
  0
LINE
  5
2D0
330
71
100
AcDbEntity
  8
Sichtbar (ISO)
100
AcDbLine
 10
66.76423026841516
 20
95.51786415569678
 30
0.0
 11
65.90823026841515
 21
96.37386415569679
 31
0.0
  0
LINE
  5
2D1
330
71
100
AcDbEntity
  8
Sichtbar (ISO)
100
AcDbLine
 10
78.20923026841516
 20
95.51786415569678
 30
0.0
 11
79.06523026841515
 21
96.37386415569679
 31
0.0
  0
LINE
  5
2D2
330
71
100
AcDbEntity
  8
Sichtbar (ISO)
100
AcDbLine
 10
70.98673026841516
 20
118.5178641556968
 30
0.0
 11
73.98673026841516
 21
118.5178641556968
 31
0.0
  0
LINE
  5
2D3
330
71
100
AcDbEntity
  8
Sichtbar (ISO)
100
AcDbLine
 10
70.98673026841516
 20
116.5178641556968
 30
0.0
 11
70.98673026841516
 21
118.5178641556968
 31
0.0
  0
LINE
  5
2D4
330
71
100
AcDbEntity
  8
Sichtbar (ISO)
100
AcDbLine
 10
73.98673026841516
 20
118.5178641556968
 30
0.0
 11
73.98673026841516
 21
116.5178641556968
 31
0.0
  0
CIRCLE
  5
2D5
330
71
100
AcDbEntity
  8
Sichtbar (ISO)
100
AcDbCircle
 10
72.48673026840922
 20
118.5178641556968
 30
0.0
 40
2.999999999999998
  0
CIRCLE
  5
2D6
330
71
100
AcDbEntity
  8
Sichtbar (ISO)
100
AcDbCircle
 10
72.48673026841337
 20
118.5178641556968
 30
0.0
 40
2.499999999999999
  0
CIRCLE
  5
2D7
330
71
100
AcDbEntity
  8
Sichtbar (ISO)
100
AcDbCircle
 10
72.48673026840937
 20
118.5178641556968
 30
0.0
 40
5.350000000000001
  0
CIRCLE
  5
2D8
330
71
100
AcDbEntity
  8
Sichtbar (ISO)
100
AcDbCircle
 10
72.48673026840922
 20
118.5178641556968
 30
0.0
 40
4.483974596215603
  0
CIRCLE
  5
2D9
330
71
100
AcDbEntity
  8
Sichtbar (ISO)
100
AcDbCircle
 10
72.48673026841006
 20
118.5178641556968
 30
0.0
 40
5.499999999999997
  0
CIRCLE
  5
2DA
330
71
100
AcDbEntity
  8
Sichtbar (ISO)
100
AcDbCircle
 10
72.48673026841186
 20
118.5178641556968
 30
0.0
 40
6.349999999999997
  0
LINE
  5
2DB
330
71
100
AcDbEntity
  8
Sichtbar schmal (ISO)
100
AcDbLine
 10
78.33423026841515
 20
95.64286415569677
 30
0.0
 11
78.33423026841515
 21
100.9399072024744
 31
0.0
  0
LINE
  5
2DC
330
71
100
AcDbEntity
  8
Sichtbar schmal (ISO)
100
AcDbLine
 10
66.63923026841516
 20
100.9399072024744
 30
0.0
 11
66.63923026841516
 21
95.64286415569677
 31
0.0
  0
DIMENSION
  5
2DD
330
71
100
AcDbEntity
  8
Bemaßung (ISO)
100
AcDbDimension
280
     0
  2
*D5
 10
43.23680832252961
 20
91.37386415569677
 30
0.0
 11
36.65830832252961
 21
91.37386415569677
 31
0.0
 70
   160
  1
 G1/4
 71
     5
 42
13.15699999999999
 73
     0
 74
     0
 75
     0
  3
Standard (DIN)
100
AcDbAlignedDimension
 13
30.07980832252961
 23
96.37386415569679
 33
0.0
 14
43.23680832252961
 24
96.37386415569679
 34
0.0
 50
180.0
100
AcDbRotatedDimension
1001
ACAD
1000
DSTYLE
1002
{
1070
   172
1070
     0
1070
   289
1070
     1
1070
   271
1070
     2
1070
   272
1070
     2
1070
    48
1040
0.0
1070
    47
1040
0.0
1002
}
  0
DIMENSION
  5
3C0
330
71
100
AcDbEntity
  8
rot
100
AcDbDimension
280
     0
  2
*D6
 10
50.29096125958012
 20
118.5178641556966
 30
0.0
 11
50.29096125958009
 21
107.0178641556967
 31
0.0
 70
   160
  1
max. <>
 71
     5
 42
22.99999999999983
 73
     0
 74
     0
 75
     0
  3
Standard (DIN)
100
AcDbAlignedDimension
 13
42.3808083225296
 23
95.51786415569678
 33
0.0
 14
42.40830832252973
 24
118.5178641556966
 34
0.0
 50
90.0
100
AcDbRotatedDimension
1001
ACAD
1000
DSTYLE
1002
{
1070
   172
1070
     0
1070
   289
1070
     1
1070
   271
1070
     2
1070
   272
1070
     2
1070
    48
1040
0.0
1070
    47
1040
0.0
1002
}
  0
DIMENSION
  5
498
330
71
100
AcDbEntity
  8
rot
100
AcDbDimension
280
     0
  2
*D7
 10
36.65830832252961
 20
128.0018387519124
 30
0.0
 11
26.65830832252961
 21
128.0018387519124
 31
0.0
 70
   160
  1
max. <>
 71
     5
 42
20.0
 73
     0
 74
     0
 75
     0
  3
Standard (DIN)
100
AcDbAlignedDimension
 13
16.65830832252961
 23
123.0018387519123
 33
0.0
 14
36.65830832252961
 24
123.0178641556967
 34
0.0
 50
180.0
100
AcDbRotatedDimension
1001
ACAD
1000
DSTYLE
1002
{
1070
   172
1070
     0
1070
   289
1070
     1
1070
   271
1070
     2
1070
   272
1070
     2
1070
    48
1040
0.0
1070
    47
1040
0.0
1002
}
  0
DIMENSION
  5
570
330
71
100
AcDbEntity
  8
rot
100
AcDbDimension
280
     0
  2
*D8
 10
86.4903152243148
 20
112.1678641556967
 30
0.0
 11
86.4903152243148
 21
118.5178641556968
 31
0.0
 70
   160
  1
max. \fAIGDT|b0|i0;\H1.2437;n\fArial|b0|i0;\H1.2500;<>
 71
     5
 42
12.69999999999999
 73
     0
 74
     0
 75
     0
  3
Standard (DIN)
100
AcDbAlignedDimension
 13
72.48673026841185
 23
124.8678641556967
 33
0.0
 14
72.48673026841185
 24
112.1678641556967
 34
0.0
 50
90.0
100
AcDbRotatedDimension
1001
ACAD
1000
DSTYLE
1002
{
1070
   172
1070
     0
1070
   289
1070
     1
1070
   271
1070
     2
1070
   272
1070
     2
1070
    48
1040
0.0
1070
    47
1040
0.0
1002
}
  0
DIMENSION
  5
653
330
71
100
AcDbEntity
  8
Bemaßung (ISO)
100
AcDbDimension
280
     0
  2
*D9
 10
82.62528429290609
 20
121.5178641556967
 30
0.0
 11
82.62528429290609
 21
118.5178641556968
 31
0.0
 70
   160
  1
\fAIGDT|b0|i0;\H1.2437;n\fArial|b0|i0;\H1.2500;<>
 71
     5
 42
6.0
 73
     0
 74
     0
 75
     0
  3
Standard (DIN)
100
AcDbAlignedDimension
 13
72.48673026840922
 23
115.5178641556968
 33
0.0
 14
72.48673026840922
 24
121.5178641556967
 34
0.0
 50
90.0
100
AcDbRotatedDimension
1001
ACAD
1000
DSTYLE
1002
{
1070
   172
1070
     0
1070
   289
1070
     1
1070
   271
1070
     2
1070
   272
1070
     2
1070
    48
1040
0.0
1070
    47
1040
0.0
1002
}
  0
LINE
  5
735
330
71
100
AcDbEntity
  8
Mittelpunktmarkierung (ISO)
  6
CHAIN
 48
23.99096870422363
100
AcDbLine
 10
36.65830832252979
 20
124.2678641556966
 30
0.0
 11
36.65830832252973
 21
117.2678641556966
 31
0.0
  0
LINE
  5
736
330
71
100
AcDbEntity
  8
Mittellinie (ISO)
  6
CHAIN
 48
23.99096870422363
100
AcDbLine
 10
15.40830832252961
 20
118.5178641556968
 30
0.0
 11
42.40830832252973
 21
118.5178641556966
 31
0.0
  0
LINE
  5
737
330
71
100
AcDbEntity
  8
Mittelpunktmarkierung (ISO)
  6
CHAIN
 48
23.99096870422363
100
AcDbLine
 10
35.40830832252974
 20
118.5178641556966
 30
0.0
 11
42.40830832252973
 21
118.5178641556966
 31
0.0
  0
LINE
  5
738
330
71
100
AcDbEntity
  8
Mittellinie (ISO)
  6
CHAIN
 48
23.99096870422363
100
AcDbLine
 10
36.65830832252961
 20
94.26786415569678
 30
0.0
 11
36.65830832252978
 21
124.2678641556966
 31
0.0
  0
DIMENSION
  5
739
330
71
100
AcDbEntity
  8
Bemaßung (ISO)
100
AcDbDimension
280
     0
  2
*D10
 10
47.25830832252962
 20
102.5178641556967
 30
0.0
 11
47.2583083225296
 21
99.01786415569677
 31
0.0
 70
   160
  1
<>
 71
     5
 42
6.999999999999985
 73
     0
 74
     0
 75
     0
  3
Standard (DIN)
100
AcDbAlignedDimension
 13
42.3808083225296
 23
95.51786415569678
 33
0.0
 14
43.55830832252961
 24
102.5178641556967
 34
0.0
 50
90.0
100
AcDbRotatedDimension
1001
ACAD
1000
DSTYLE
1002
{
1070
   172
1070
     0
1070
   289
1070
     1
1070
   271
1070
     2
1070
   272
1070
     2
1070
    48
1040
0.0
1070
    47
1040
0.0
1002
}
  0
LINE
  5
81B
330
71
100
AcDbEntity
  8
Mittelpunktmarkierung (ISO)
  6
CHAIN
 48
23.99096870422363
100
AcDbLine
 10
80.08673026841185
 20
118.5178641556968
 30
0.0
 11
64.88673026841185
 21
118.5178641556968
 31
0.0
  0
LINE
  5
81C
330
71
100
AcDbEntity
  8
Mittelpunktmarkierung (ISO)
  6
CHAIN
 48
23.99096870422363
100
AcDbLine
 10
72.48673026841185
 20
126.1178641556967
 30
0.0
 11
72.48673026841185
 21
110.9178641556967
 31
0.0
  0
CIRCLE
  5
81D
330
71
100
AcDbEntity
  8
Skizziergeometrie (ISO)
100
AcDbCircle
 10
31.63646656812886
 20
38.80562947300844
 30
0.0
 40
0.8750000000000001
  0
MTEXT
  5
81E
330
71
100
AcDbEntity
  8
Symbol (ISO)
 62
     1
420
 16711680
100
AcDbMText
 10
31.36506209188201
 20
130.1795757967671
 30
0.0
 40
1.25
 41
0.0
 46
0.0
 71
     1
 72
     1
  1
{\fArial|b1|i0;\H1.2500;C}
  7
Notiztext (DIN)
 73
     1
 44
1.0
  0
MTEXT
  5
81F
330
71
100
AcDbEntity
  8
Symbol (ISO)
 62
     1
420
 16711680
100
AcDbMText
 10
48.29872241692562
 20
112.4669627949492
 30
0.0
 40
1.25
 41
0.0
 46
0.0
 71
     1
 72
     1
  1
{\fArial|b1|i0;\H1.2500;C}
  7
Notiztext (DIN)
 73
     1
 44
1.0
  0
MTEXT
  5
820
330
71
100
AcDbEntity
  8
Symbol (ISO)
 62
     1
420
 16711680
100
AcDbMText
 10
84.20615992065664
 20
126.885061616454
 30
0.0
 40
1.25
 41
0.0
 46
0.0
 71
     1
 72
     1
  1
{\fArial|b1|i0;\H1.2500;C}
  7
Notiztext (DIN)
 73
     1
 44
1.0
  0
MTEXT
  5
821
330
71
100
AcDbEntity
  8
Symbol (ISO)
 62
     1
420
 16711680
100
AcDbMText
 10
17.6781822050793
 20
60.0940180944876
 30
0.0
 40
1.25
 41
0.0
 46
0.0
 71
     1
 72
     1
  1
{\fArial|b1|i0;\H1.2500;C}
  7
Notiztext (DIN)
 73
     1
 44
1.0
  0
MTEXT
  5
822
330
71
100
AcDbEntity
  8
Symbol (ISO)
 62
     1
420
 16711680
100
AcDbMText
 10
30.98857464716524
 20
39.41771897973433
 30
0.0
 40
1.25
 41
0.0
 46
0.0
 71
     1
 72
     1
  1
{\fArial|b1|i0;\H1.2500;C}
  7
Notiztext (DIN)
 73
     1
 44
1.0
  0
CIRCLE
  5
823
330
71
100
AcDbEntity
  8
Skizziergeometrie (ISO)
100
AcDbCircle
 10
18.32830841464556
 20
59.46594514239163
 30
0.0
 40
0.8750000000000007
  0
CIRCLE
  5
824
330
71
100
AcDbEntity
  8
Skizziergeometrie (ISO)
100
AcDbCircle
 10
84.86292928893606
 20
126.1867519900275
 30
0.0
 40
0.8750000000000039
  0
CIRCLE
  5
825
330
71
100
AcDbEntity
  8
Skizziergeometrie (ISO)
100
AcDbCircle
 10
48.87527377078779
 20
111.8221833339634
 30
0.0
 40
0.8750000000000046
  0
CIRCLE
  5
826
330
71
100
AcDbEntity
  8
Skizziergeometrie (ISO)
100
AcDbCircle
 10
32.0076937881606
 20
129.5308402411974
 30
0.0
 40
0.8749999999999925
  0
MTEXT
  5
827
330
71
100
AcDbEntity
  8
Symbol (ISO)
100
AcDbMText
 10
78.98831526493011
 20
13.29373384380584
 30
0.0
 40
1.00000001490116
 41
21.05868816375732
 46
0.0
 71
     2
 72
     1
  1
{\fArial|b1|i0;\H1.0000;Schlauchanschluss G1/4a für\PSchlauch aØ6mm 90° - drehbar/\P\fArial|b1|i1;\H1.0000;Tube connector G1/4o for\Ptube oØ6mm 90° - rotary type}
  7
Notiztext (DIN)
 73
     2
 44
0.9442214369773862
  0
ENDSEC
  0
SECTION
  2
OBJECTS
  0
DICTIONARY
  5
C
330
0
100
AcDbDictionary
281
     1
  3
ACAD_CIP_PREVIOUS_PRODUCT_INFO
350
829
  3
ACAD_COLOR
350
63
  3
ACAD_DETAILVIEWSTYLE
350
6B
  3
ACAD_GROUP
350
D
  3
ACAD_LAYOUT
350
62
  3
ACAD_MATERIAL
350
10
  3
ACAD_MLEADERSTYLE
350
66
  3
ACAD_MLINESTYLE
350
5F
  3
ACAD_PLOTSETTINGS
350
61
  3
ACAD_PLOTSTYLENAME
350
E
  3
ACAD_SCALELIST
350
42
  3
ACAD_SECTIONVIEWSTYLE
350
68
  3
ACAD_TABLESTYLE
350
64
  3
ACAD_VISUALSTYLE
350
29
  3
ACDB_RECOMPOSE_DATA
350
A3F
  3
AcDbVariableDictionary
350
82A
  0
DICTIONARY
  5
832
330
1D0
100
AcDbDictionary
280
     1
281
     1
  3
ACAD_MTEXT_2008_RT
360
984
  0
DICTIONARY
  5
834
330
1D3
100
AcDbDictionary
280
     1
281
     1
  3
ACAD_MLATT
360
987
  3
ACAD_XREC_ROUNDTRIP
360
986
  0
DICTIONARY
  5
837
330
1D6
100
AcDbDictionary
280
     1
281
     1
  3
ACAD_MLATT
360
989
  3
ACAD_XREC_ROUNDTRIP
360
988
  0
DICTIONARY
  5
83A
330
1D8
100
AcDbDictionary
280
     1
281
     1
  3
ACAD_MLATT
360
98B
  3
ACAD_XREC_ROUNDTRIP
360
98A
  0
DICTIONARY
  5
83D
330
1D9
100
AcDbDictionary
280
     1
281
     1
  3
ACAD_MLATT
360
98D
  3
ACAD_XREC_ROUNDTRIP
360
98C
  0
DICTIONARY
  5
840
330
1DA
100
AcDbDictionary
280
     1
281
     1
  3
ACAD_MLATT
360
98F
  3
ACAD_XREC_ROUNDTRIP
360
98E
  0
DICTIONARY
  5
843
330
1DB
100
AcDbDictionary
280
     1
281
     1
  3
ACAD_MLATT
360
991
  3
ACAD_XREC_ROUNDTRIP
360
990
  0
DICTIONARY
  5
846
330
1DC
100
AcDbDictionary
280
     1
281
     1
  3
ACAD_MLATT
360
993
  3
ACAD_XREC_ROUNDTRIP
360
992
  0
DICTIONARY
  5
849
330
1DD
100
AcDbDictionary
280
     1
281
     1
  3
ACAD_MLATT
360
995
  3
ACAD_XREC_ROUNDTRIP
360
994
  0
DICTIONARY
  5
84C
330
1DE
100
AcDbDictionary
280
     1
281
     1
  3
ACAD_MLATT
360
997
  3
ACAD_XREC_ROUNDTRIP
360
996
  0
DICTIONARY
  5
84F
330
1DF
100
AcDbDictionary
280
     1
281
     1
  3
ACAD_MLATT
360
999
  3
ACAD_XREC_ROUNDTRIP
360
998
  0
DICTIONARY
  5
852
330
1E0
100
AcDbDictionary
280
     1
281
     1
  3
ACAD_MLATT
360
99B
  3
ACAD_XREC_ROUNDTRIP
360
99A
  0
DICTIONARY
  5
855
330
1E1
100
AcDbDictionary
280
     1
281
     1
  3
ACAD_MLATT
360
99D
  3
ACAD_XREC_ROUNDTRIP
360
99C
  0
DICTIONARY
  5
858
330
1E2
100
AcDbDictionary
280
     1
281
     1
  3
ACAD_MLATT
360
99F
  3
ACAD_XREC_ROUNDTRIP
360
99E
  0
DICTIONARY
  5
85B
330
1E3
100
AcDbDictionary
280
     1
281
     1
  3
ACAD_MLATT
360
9A1
  3
ACAD_XREC_ROUNDTRIP
360
9A0
  0
DICTIONARY
  5
85E
330
1E4
100
AcDbDictionary
280
     1
281
     1
  3
ACAD_MLATT
360
9A3
  3
ACAD_XREC_ROUNDTRIP
360
9A2
  0
DICTIONARY
  5
861
330
1E5
100
AcDbDictionary
280
     1
281
     1
  3
ACAD_MLATT
360
9A5
  3
ACAD_XREC_ROUNDTRIP
360
9A4
  0
DICTIONARY
  5
864
330
1E6
100
AcDbDictionary
280
     1
281
     1
  3
ACAD_MLATT
360
9A7
  3
ACAD_XREC_ROUNDTRIP
360
9A6
  0
DICTIONARY
  5
867
330
1E7
100
AcDbDictionary
280
     1
281
     1
  3
ACAD_MLATT
360
9A9
  3
ACAD_XREC_ROUNDTRIP
360
9A8
  0
DICTIONARY
  5
86A
330
1E8
100
AcDbDictionary
280
     1
281
     1
  3
ACAD_MLATT
360
9AB
  3
ACAD_XREC_ROUNDTRIP
360
9AA
  0
DICTIONARY
  5
86D
330
1E9
100
AcDbDictionary
280
     1
281
     1
  3
ACAD_MLATT
360
9AD
  3
ACAD_XREC_ROUNDTRIP
360
9AC
  0
DICTIONARY
  5
870
330
1EA
100
AcDbDictionary
280
     1
281
     1
  3
ACAD_MLATT
360
9AF
  3
ACAD_XREC_ROUNDTRIP
360
9AE
  0
DICTIONARY
  5
873
330
1EB
100
AcDbDictionary
280
     1
281
     1
  3
ACAD_MLATT
360
9B1
  3
ACAD_XREC_ROUNDTRIP
360
9B0
  0
DICTIONARY
  5
876
330
1EC
100
AcDbDictionary
280
     1
281
     1
  3
ACAD_MLATT
360
9B3
  3
ACAD_XREC_ROUNDTRIP
360
9B2
  0
DICTIONARY
  5
879
330
1ED
100
AcDbDictionary
280
     1
281
     1
  3
ACAD_MLATT
360
9B5
  3
ACAD_XREC_ROUNDTRIP
360
9B4
  0
DICTIONARY
  5
87C
330
1EE
100
AcDbDictionary
280
     1
281
     1
  3
ACAD_MLATT
360
9B7
  3
ACAD_XREC_ROUNDTRIP
360
9B6
  0
DICTIONARY
  5
87F
330
1EF
100
AcDbDictionary
280
     1
281
     1
  3
ACAD_MLATT
360
9B9
  3
ACAD_XREC_ROUNDTRIP
360
9B8
  0
DICTIONARY
  5
882
330
1F0
100
AcDbDictionary
280
     1
281
     1
  3
ACAD_MLATT
360
9BB
  3
ACAD_XREC_ROUNDTRIP
360
9BA
  0
DICTIONARY
  5
885
330
1F1
100
AcDbDictionary
280
     1
281
     1
  3
ACAD_MLATT
360
9BD
  3
ACAD_XREC_ROUNDTRIP
360
9BC
  0
DICTIONARY
  5
888
330
1F2
100
AcDbDictionary
280
     1
281
     1
  3
ACAD_MLATT
360
9BF
  3
ACAD_XREC_ROUNDTRIP
360
9BE
  0
DICTIONARY
  5
88B
330
1F3
100
AcDbDictionary
280
     1
281
     1
  3
ACAD_MLATT
360
9C1
  3
ACAD_XREC_ROUNDTRIP
360
9C0
  0
DICTIONARY
  5
88E
330
1F4
100
AcDbDictionary
280
     1
281
     1
  3
ACAD_MLATT
360
9C3
  3
ACAD_XREC_ROUNDTRIP
360
9C2
  0
DICTIONARY
  5
891
330
1F5
100
AcDbDictionary
280
     1
281
     1
  3
ACAD_MLATT
360
9C5
  3
ACAD_XREC_ROUNDTRIP
360
9C4
  0
DICTIONARY
  5
894
330
1F6
100
AcDbDictionary
280
     1
281
     1
  3
ACAD_MLATT
360
9C7
  3
ACAD_XREC_ROUNDTRIP
360
9C6
  0
DICTIONARY
  5
897
330
1F7
100
AcDbDictionary
280
     1
281
     1
  3
ACAD_MLATT
360
9C9
  3
ACAD_XREC_ROUNDTRIP
360
9C8
  0
DICTIONARY
  5
89A
330
1F9
100
AcDbDictionary
280
     1
281
     1
  3
ACAD_MLATT
360
9CB
  3
ACAD_XREC_ROUNDTRIP
360
9CA
  0
DICTIONARY
  5
89D
330
1FA
100
AcDbDictionary
280
     1
281
     1
  3
ACAD_MLATT
360
9CD
  3
ACAD_XREC_ROUNDTRIP
360
9CC
  0
DICTIONARY
  5
8A0
330
1FC
100
AcDbDictionary
280
     1
281
     1
  3
ACAD_MLATT
360
9CF
  3
ACAD_XREC_ROUNDTRIP
360
9CE
  0
DICTIONARY
  5
8A3
330
1FD
100
AcDbDictionary
280
     1
281
     1
  3
ACAD_MLATT
360
9D1
  3
ACAD_XREC_ROUNDTRIP
360
9D0
  0
DICTIONARY
  5
8A6
330
1FE
100
AcDbDictionary
280
     1
281
     1
  3
ACAD_MLATT
360
9D3
  3
ACAD_XREC_ROUNDTRIP
360
9D2
  0
DICTIONARY
  5
8A9
330
1FF
100
AcDbDictionary
280
     1
281
     1
  3
ACAD_MLATT
360
9D5
  3
ACAD_XREC_ROUNDTRIP
360
9D4
  0
DICTIONARY
  5
8AC
330
201
100
AcDbDictionary
280
     1
281
     1
  3
ACAD_MLATT
360
9D7
  3
ACAD_XREC_ROUNDTRIP
360
9D6
  0
DICTIONARY
  5
8AF
330
202
100
AcDbDictionary
280
     1
281
     1
  3
ACAD_MLATT
360
9D9
  3
ACAD_XREC_ROUNDTRIP
360
9D8
  0
DICTIONARY
  5
8B2
330
203
100
AcDbDictionary
280
     1
281
     1
  3
ACAD_MLATT
360
9DB
  3
ACAD_XREC_ROUNDTRIP
360
9DA
  0
DICTIONARY
  5
8B5
330
204
100
AcDbDictionary
280
     1
281
     1
  3
ACAD_MLATT
360
9DD
  3
ACAD_XREC_ROUNDTRIP
360
9DC
  0
DICTIONARY
  5
8B8
330
205
100
AcDbDictionary
280
     1
281
     1
  3
ACAD_MLATT
360
9DF
  3
ACAD_XREC_ROUNDTRIP
360
9DE
  0
DICTIONARY
  5
8BB
330
206
100
AcDbDictionary
280
     1
281
     1
  3
ACAD_MLATT
360
9E1
  3
ACAD_XREC_ROUNDTRIP
360
9E0
  0
DICTIONARY
  5
8BE
330
209
100
AcDbDictionary
280
     1
281
     1
  3
ACAD_MLATT
360
9E3
  3
ACAD_XREC_ROUNDTRIP
360
9E2
  0
DICTIONARY
  5
8C1
330
20A
100
AcDbDictionary
280
     1
281
     1
  3
ACAD_MLATT
360
9E5
  3
ACAD_XREC_ROUNDTRIP
360
9E4
  0
DICTIONARY
  5
8C4
330
20C
100
AcDbDictionary
280
     1
281
     1
  3
ACAD_MLATT
360
9E7
  3
ACAD_XREC_ROUNDTRIP
360
9E6
  0
DICTIONARY
  5
8C7
330
20D
100
AcDbDictionary
280
     1
281
     1
  3
ACAD_MLATT
360
9E9
  3
ACAD_XREC_ROUNDTRIP
360
9E8
  0
DICTIONARY
  5
8CA
330
20E
100
AcDbDictionary
280
     1
281
     1
  3
ACAD_MLATT
360
9EB
  3
ACAD_XREC_ROUNDTRIP
360
9EA
  0
DICTIONARY
  5
8CD
330
20F
100
AcDbDictionary
280
     1
281
     1
  3
ACAD_MLATT
360
9ED
  3
ACAD_XREC_ROUNDTRIP
360
9EC
  0
DICTIONARY
  5
8D0
330
210
100
AcDbDictionary
280
     1
281
     1
  3
ACAD_MLATT
360
9EF
  3
ACAD_XREC_ROUNDTRIP
360
9EE
  0
DICTIONARY
  5
8D3
330
211
100
AcDbDictionary
280
     1
281
     1
  3
ACAD_MLATT
360
9F1
  3
ACAD_XREC_ROUNDTRIP
360
9F0
  0
DICTIONARY
  5
8D6
330
212
100
AcDbDictionary
280
     1
281
     1
  3
ACAD_MLATT
360
9F3
  3
ACAD_XREC_ROUNDTRIP
360
9F2
  0
DICTIONARY
  5
8D9
330
213
100
AcDbDictionary
280
     1
281
     1
  3
ACAD_MLATT
360
9F5
  3
ACAD_XREC_ROUNDTRIP
360
9F4
  0
DICTIONARY
  5
8DC
330
214
100
AcDbDictionary
280
     1
281
     1
  3
ACAD_MLATT
360
9F7
  3
ACAD_XREC_ROUNDTRIP
360
9F6
  0
DICTIONARY
  5
8DF
330
215
100
AcDbDictionary
280
     1
281
     1
  3
ACAD_MLATT
360
9F9
  3
ACAD_XREC_ROUNDTRIP
360
9F8
  0
DICTIONARY
  5
8E2
330
216
100
AcDbDictionary
280
     1
281
     1
  3
ACAD_MLATT
360
9FB
  3
ACAD_XREC_ROUNDTRIP
360
9FA
  0
DICTIONARY
  5
8E5
330
217
100
AcDbDictionary
280
     1
281
     1
  3
ACAD_MLATT
360
9FD
  3
ACAD_XREC_ROUNDTRIP
360
9FC
  0
DICTIONARY
  5
8E8
330
218
100
AcDbDictionary
280
     1
281
     1
  3
ACAD_MLATT
360
9FF
  3
ACAD_XREC_ROUNDTRIP
360
9FE
  0
DICTIONARY
  5
8EB
330
219
100
AcDbDictionary
280
     1
281
     1
  3
ACAD_MLATT
360
A01
  3
ACAD_XREC_ROUNDTRIP
360
A00
  0
DICTIONARY
  5
8EE
330
21A
100
AcDbDictionary
280
     1
281
     1
  3
ACAD_MLATT
360
A03
  3
ACAD_XREC_ROUNDTRIP
360
A02
  0
DICTIONARY
  5
8F1
330
21B
100
AcDbDictionary
280
     1
281
     1
  3
ACAD_MLATT
360
A05
  3
ACAD_XREC_ROUNDTRIP
360
A04
  0
DICTIONARY
  5
8F4
330
21C
100
AcDbDictionary
280
     1
281
     1
  3
ACAD_MLATT
360
A07
  3
ACAD_XREC_ROUNDTRIP
360
A06
  0
DICTIONARY
  5
8F7
330
21D
100
AcDbDictionary
280
     1
281
     1
  3
ACAD_MLATT
360
A09
  3
ACAD_XREC_ROUNDTRIP
360
A08
  0
DICTIONARY
  5
8FA
330
21E
100
AcDbDictionary
280
     1
281
     1
  3
ACAD_MLATT
360
A0B
  3
ACAD_XREC_ROUNDTRIP
360
A0A
  0
DICTIONARY
  5
8FD
330
21F
100
AcDbDictionary
280
     1
281
     1
  3
ACAD_MLATT
360
A0D
  3
ACAD_XREC_ROUNDTRIP
360
A0C
  0
DICTIONARY
  5
900
330
220
100
AcDbDictionary
280
     1
281
     1
  3
ACAD_MLATT
360
A0F
  3
ACAD_XREC_ROUNDTRIP
360
A0E
  0
DICTIONARY
  5
903
330
221
100
AcDbDictionary
280
     1
281
     1
  3
ACAD_MLATT
360
A11
  3
ACAD_XREC_ROUNDTRIP
360
A10
  0
DICTIONARY
  5
906
330
222
100
AcDbDictionary
280
     1
281
     1
  3
ACAD_MLATT
360
A13
  3
ACAD_XREC_ROUNDTRIP
360
A12
  0
DICTIONARY
  5
909
330
223
100
AcDbDictionary
280
     1
281
     1
  3
ACAD_MLATT
360
A15
  3
ACAD_XREC_ROUNDTRIP
360
A14
  0
DICTIONARY
  5
90C
330
224
100
AcDbDictionary
280
     1
281
     1
  3
ACAD_MLATT
360
A17
  3
ACAD_XREC_ROUNDTRIP
360
A16
  0
DICTIONARY
  5
90F
330
225
100
AcDbDictionary
280
     1
281
     1
  3
ACAD_MLATT
360
A19
  3
ACAD_XREC_ROUNDTRIP
360
A18
  0
DICTIONARY
  5
912
330
226
100
AcDbDictionary
280
     1
281
     1
  3
ACAD_MLATT
360
A1B
  3
ACAD_XREC_ROUNDTRIP
360
A1A
  0
DICTIONARY
  5
915
330
227
100
AcDbDictionary
280
     1
281
     1
  3
ACAD_MLATT
360
A1D
  3
ACAD_XREC_ROUNDTRIP
360
A1C
  0
DICTIONARY
  5
918
330
228
100
AcDbDictionary
280
     1
281
     1
  3
ACAD_MLATT
360
A1F
  3
ACAD_XREC_ROUNDTRIP
360
A1E
  0
DICTIONARY
  5
91B
330
229
100
AcDbDictionary
280
     1
281
     1
  3
ACAD_MLATT
360
A21
  3
ACAD_XREC_ROUNDTRIP
360
A20
  0
DICTIONARY
  5
91E
330
22A
100
AcDbDictionary
280
     1
281
     1
  3
ACAD_MLATT
360
A23
  3
ACAD_XREC_ROUNDTRIP
360
A22
  0
DICTIONARY
  5
921
330
22B
100
AcDbDictionary
280
     1
281
     1
  3
ACAD_MLATT
360
A25
  3
ACAD_XREC_ROUNDTRIP
360
A24
  0
DICTIONARY
  5
924
330
22C
100
AcDbDictionary
280
     1
281
     1
  3
ACAD_MLATT
360
A27
  3
ACAD_XREC_ROUNDTRIP
360
A26
  0
DICTIONARY
  5
927
330
22D
100
AcDbDictionary
280
     1
281
     1
  3
ACAD_MLATT
360
A29
  3
ACAD_XREC_ROUNDTRIP
360
A28
  0
DICTIONARY
  5
92A
330
22E
100
AcDbDictionary
280
     1
281
     1
  3
ACAD_MLATT
360
A2B
  3
ACAD_XREC_ROUNDTRIP
360
A2A
  0
DICTIONARY
  5
92D
330
22F
100
AcDbDictionary
280
     1
281
     1
  3
ACAD_MLATT
360
A2D
  3
ACAD_XREC_ROUNDTRIP
360
A2C
  0
DICTIONARY
  5
930
330
230
100
AcDbDictionary
280
     1
281
     1
  3
ACAD_MLATT
360
A2F
  3
ACAD_XREC_ROUNDTRIP
360
A2E
  0
DICTIONARY
  5
933
330
231
100
AcDbDictionary
280
     1
281
     1
  3
ACAD_MLATT
360
A31
  3
ACAD_XREC_ROUNDTRIP
360
A30
  0
DICTIONARY
  5
936
330
232
100
AcDbDictionary
280
     1
281
     1
  3
ACAD_MLATT
360
A33
  3
ACAD_XREC_ROUNDTRIP
360
A32
  0
DICTIONARY
  5
939
330
233
100
AcDbDictionary
280
     1
281
     1
  3
ACAD_MLATT
360
A35
  3
ACAD_XREC_ROUNDTRIP
360
A34
  0
DICTIONARY
  5
93C
330
234
100
AcDbDictionary
280
     1
281
     1
  3
ACAD_MLATT
360
A37
  3
ACAD_XREC_ROUNDTRIP
360
A36
  0
DICTIONARY
  5
93F
330
235
100
AcDbDictionary
280
     1
281
     1
  3
ACAD_MLATT
360
A39
  3
ACAD_XREC_ROUNDTRIP
360
A38
  0
DICTIONARY
  5
942
330
236
100
AcDbDictionary
280
     1
281
     1
  3
ACAD_MLATT
360
A3B
  3
ACAD_XREC_ROUNDTRIP
360
A3A
  0
DICTIONARY
  5
945
330
237
100
AcDbDictionary
280
     1
281
     1
  3
ACAD_MLATT
360
A3D
  3
ACAD_XREC_ROUNDTRIP
360
A3C
  0
XRECORD
  5
829
102
{ACAD_REACTORS
330
C
102
}
330
C
100
AcDbXrecord
280
     1
300
INVPROSA
300
2013
300
85964PDSS_2013_0F
  0
DICTIONARY
  5
63
102
{ACAD_REACTORS
330
C
102
}
330
C
100
AcDbDictionary
281
     1
  0
DICTIONARY
  5
6B
102
{ACAD_REACTORS
330
C
102
}
330
C
100
AcDbDictionary
281
     1
  3
Imperial24
350
6C
  3
Metric50
350
980
  0
DICTIONARY
  5
D
102
{ACAD_REACTORS
330
C
102
}
330
C
100
AcDbDictionary
281
     1
  0
DICTIONARY
  5
62
102
{ACAD_REACTORS
330
C
102
}
330
C
100
AcDbDictionary
281
     1
  3
Layout1
350
70
  3
Layout2
350
78
  3
Model
350
74
  0
DICTIONARY
  5
10
102
{ACAD_REACTORS
330
C
102
}
330
C
100
AcDbDictionary
281
     1
  3
ByBlock
350
19
  3
ByLayer
350
11
  3
Global
350
21
  0
DICTIONARY
  5
66
102
{ACAD_REACTORS
330
C
102
}
330
C
100
AcDbDictionary
281
     1
  3
Standard
350
67
  0
DICTIONARY
  5
5F
102
{ACAD_REACTORS
330
C
102
}
330
C
100
AcDbDictionary
281
     1
  3
Standard
350
60
  0
DICTIONARY
  5
61
102
{ACAD_REACTORS
330
C
102
}
330
C
100
AcDbDictionary
281
     1
  0
ACDBDICTIONARYWDFLT
  5
E
102
{ACAD_REACTORS
330
C
102
}
330
C
100
AcDbDictionary
281
     1
  3
Normal
350
F
100
AcDbDictionaryWithDefault
340
F
  0
DICTIONARY
  5
42
102
{ACAD_REACTORS
330
C
102
}
330
C
100
AcDbDictionary
281
     1
  3
A0
350
43
  3
A1
350
44
  3
A2
350
45
  3
A3
350
46
  3
A4
350
47
  3
A5
350
48
  3
A6
350
49
  3
A7
350
4A
  3
A8
350
4B
  3
A9
350
4C
  3
B0
350
4D
  3
B1
350
4E
  3
B2
350
4F
  3
B3
350
50
  3
B4
350
51
  3
B5
350
52
  3
B6
350
53
  0
DICTIONARY
  5
68
102
{ACAD_REACTORS
330
C
102
}
330
C
100
AcDbDictionary
281
     1
  3
Imperial24
350
6A
  3
Metric50
350
97F
  0
DICTIONARY
  5
64
102
{ACAD_REACTORS
330
C
102
}
330
C
100
AcDbDictionary
281
     1
  3
Standard
350
65
  0
DICTIONARY
  5
29
102
{ACAD_REACTORS
330
C
102
}
330
C
100
AcDbDictionary
281
     1
  3
2dWireframe
350
2F
  3
Basic
350
2E
  3
Brighten
350
35
  3
ColorChange
350
39
  3
Conceptual
350
32
  3
Dim
350
34
  3
EdgeColorOff
350
41
  3
Facepattern
350
38
  3
Flat
350
2A
  3
FlatWithEdges
350
2B
  3
Gouraud
350
2C
  3
GouraudWithEdges
350
2D
  3
Hidden
350
31
  3
JitterOff
350
3F
  3
Linepattern
350
37
  3
OverhangOff
350
40
  3
Realistic
350
33
  3
Shaded
350
3E
  3
Shaded with edges
350
3D
  3
Shades of Gray
350
3A
  3
Sketchy
350
3B
  3
Thicken
350
36
  3
Wireframe
350
30
  3
X-Ray
350
3C
  0
XRECORD
  5
A3F
102
{ACAD_REACTORS
330
C
102
}
330
C
100
AcDbXrecord
280
     1
 90
        1
330
65
330
1D0
330
1D3
330
1D6
330
1D8
330
1D9
330
1DA
330
1DB
330
1DC
330
1DD
330
1DE
330
1DF
330
1E0
330
1E1
330
1E2
330
1E3
330
1E4
330
1E5
330
1E6
330
1E7
330
1E8
330
1E9
330
1EA
330
1EB
330
1EC
330
1ED
330
1EE
330
1EF
330
1F0
330
1F1
330
1F2
330
1F3
330
1F4
330
1F5
330
1F6
330
1F7
330
1F9
330
1FA
330
1FC
330
1FD
330
1FE
330
1FF
330
201
330
202
330
203
330
204
330
205
330
206
330
209
330
20A
330
20C
330
20D
330
20E
330
20F
330
210
330
211
330
212
330
213
330
214
330
215
330
216
330
217
330
218
330
219
330
21A
330
21B
330
21C
330
21D
330
21E
330
21F
330
220
330
221
330
222
330
223
330
224
330
225
330
226
330
227
330
228
330
229
330
22A
330
22B
330
22C
330
22D
330
22E
330
22F
330
230
330
231
330
232
330
233
330
234
330
235
330
236
330
237
  0
DICTIONARY
  5
82A
102
{ACAD_REACTORS
330
C
102
}
330
C
100
AcDbDictionary
281
     1
  3
CANNOSCALE
350
82F
  3
CMLEADERSTYLE
350
82C
  3
CTABLESTYLE
350
82B
  3
CVIEWDETAILSTYLE
350
82D
  3
CVIEWSECTIONSTYLE
350
82E
  0
XRECORD
  5
984
102
{ACAD_REACTORS
330
832
102
}
330
832
100
AcDbXrecord
280
     1
 40
1934152.0
  1
\pxsm0.94;\fArial|b1|i0;\H2.0000;perma-tec\fArial|b1|i0;\H1.0000; \fArial|b0|i0;\H1.4986;GmbH & Co. KG\P\fArial|b0|i0;\H1.4500;Hammelburger Str.21                      Tel. : +49 9704 609-0\P97717 EUERDORF / GERMANY    Fax : +49 9704 609-50
  0
XRECORD
  5
987
102
{ACAD_REACTORS
330
834
102
}
330
834
100
AcDbXrecord
280
     1
 70
     4
 70
     0
 70
     0
 40
1.0
  2
Blattgröße
  1
Embedded Object
 10
319.4666671943597
 20
121.1607299432635
 30
0.0
 40
2.5
 41
19.87483501434326
 46
0.0
 71
     5
 72
     5
  1
A4
  7
Notiztext (DIN)
 73
     1
 44
1.0
  0
XRECORD
  5
986
102
{ACAD_REACTORS
330
834
102
}
330
834
100
AcDbXrecord
280
     1
102
ACAD_MATT_HEIGHT
140
2.5
  0
XRECORD
  5
989
102
{ACAD_REACTORS
330
837
102
}
330
837
100
AcDbXrecord
280
     1
 70
     4
 70
     0
 70
     0
 40
1.0
  2
Blattnummer
  1
Embedded Object
 10
320.2520684510879
 20
127.5905253810919
 30
0.0
 40
5.0
 41
44.98144626617431
 46
0.0
 71
     5
 72
     5
  1
1 
  7
Textstil29
 73
     1
 44
1.0
  0
XRECORD
  5
988
102
{ACAD_REACTORS
330
837
102
}
330
837
100
AcDbXrecord
280
     1
102
ACAD_MATT_HEIGHT
140
5.0
  0
XRECORD
  5
98B
102
{ACAD_REACTORS
330
83A
102
}
330
83A
100
AcDbXrecord
280
     1
 70
     4
 70
     0
 70
     0
 40
1.0
  2
Status1
  1
Embedded Object
 10
141.2627883584022
 20
120.4632056155221
 30
0.0
 40
1.800000071525573
 41
6.714345249176076
 46
0.0
 71
     5
 72
     5
  1
B
  7
Textstil57
 73
     1
 44
1.0
  0
XRECORD
  5
98A
102
{ACAD_REACTORS
330
83A
102
}
330
83A
100
AcDbXrecord
280
     1
102
ACAD_MATT_HEIGHT
140
1.800000071525573
  0
XRECORD
  5
98D
102
{ACAD_REACTORS
330
83D
102
}
330
83D
100
AcDbXrecord
280
     1
 70
     4
 70
     0
 70
     0
 40
1.0
  2
Änderungen1
  1
Embedded Object
 10
158.6264137958634
 20
120.4632056155222
 30
0.0
 40
1.800000071525573
 41
25.93241522021302
 46
0.0
 71
     5
 72
     5
  1
Artikelnr. geändert
  7
Textstil57
 73
     1
 44
1.0
  0
XRECORD
  5
98C
102
{ACAD_REACTORS
330
83D
102
}
330
83D
100
AcDbXrecord
280
     1
102
ACAD_MATT_HEIGHT
140
1.800000071525573
  0
XRECORD
  5
98F
102
{ACAD_REACTORS
330
840
102
}
330
840
100
AcDbXrecord
280
     1
 70
     4
 70
     0
 70
     0
 40
1.0
  2
Datum1
  1
Embedded Object
 10
177.3127883584022
 20
120.4632056155221
 30
0.0
 40
1.800000071525573
 41
11.34531851480858
 46
0.0
 71
     5
 72
     5
  1
30.12.10
  7
Textstil57
 73
     1
 44
1.0
  0
XRECORD
  5
98E
102
{ACAD_REACTORS
330
840
102
}
330
840
100
AcDbXrecord
280
     1
102
ACAD_MATT_HEIGHT
140
1.800000071525573
  0
XRECORD
  5
991
102
{ACAD_REACTORS
330
843
102
}
330
843
100
AcDbXrecord
280
     1
 70
     4
 70
     0
 70
     0
 40
1.0
  2
Name1
  1
Embedded Object
 10
187.3627883584022
 20
120.4632056155221
 30
0.0
 40
1.800000071525573
 41
7.347608624633678
 46
0.0
 71
     5
 72
     5
  1
Bader
  7
Textstil57
 73
     1
 44
1.0
  0
XRECORD
  5
990
102
{ACAD_REACTORS
330
843
102
}
330
843
100
AcDbXrecord
280
     1
102
ACAD_MATT_HEIGHT
140
1.800000071525573
  0
XRECORD
  5
993
102
{ACAD_REACTORS
330
846
102
}
330
846
100
AcDbXrecord
280
     1
 70
     4
 70
     0
 70
     0
 40
1.0
  2
Status2
  1
Embedded Object
 10
141.2627883584022
 20
124.7132056155221
 30
0.0
 40
1.800000071525573
 41
6.608567028526798
 46
0.0
 71
     5
 72
     5
  1
C
  7
Textstil57
 73
     1
 44
1.0
  0
XRECORD
  5
992
102
{ACAD_REACTORS
330
846
102
}
330
846
100
AcDbXrecord
280
     1
102
ACAD_MATT_HEIGHT
140
1.800000071525573
  0
XRECORD
  5
995
102
{ACAD_REACTORS
330
849
102
}
330
849
100
AcDbXrecord
280
     1
 70
     4
 70
     0
 70
     0
 40
1.0
  2
Änderungen2
  1
Embedded Object
 10
158.6264137958634
 20
124.7132056155221
 30
0.0
 40
1.800000071525573
 41
25.91460926580964
 46
0.0
 71
     5
 72
     5
  1
Text ergänzt
  7
Textstil57
 73
     1
 44
1.0
  0
XRECORD
  5
994
102
{ACAD_REACTORS
330
849
102
}
330
849
100
AcDbXrecord
280
     1
102
ACAD_MATT_HEIGHT
140
1.800000071525573
  0
XRECORD
  5
997
102
{ACAD_REACTORS
330
84C
102
}
330
84C
100
AcDbXrecord
280
     1
 70
     4
 70
     0
 70
     0
 40
1.0
  2
Datum2
  1
Embedded Object
 10
177.3127883584022
 20
124.7132056155221
 30
0.0
 40
1.800000071525573
 41
11.34301548981597
 46
0.0
 71
     5
 72
     5
  1
21.11.13
  7
Textstil57
 73
     1
 44
1.0
  0
XRECORD
  5
996
102
{ACAD_REACTORS
330
84C
102
}
330
84C
100
AcDbXrecord
280
     1
102
ACAD_MATT_HEIGHT
140
1.800000071525573
  0
XRECORD
  5
999
102
{ACAD_REACTORS
330
84F
102
}
330
84F
100
AcDbXrecord
280
     1
 70
     4
 70
     0
 70
     0
 40
1.0
  2
Name2
  1
Embedded Object
 10
187.3627883584022
 20
124.7132056155221
 30
0.0
 40
1.800000071525573
 41
5.454410644512249
 46
0.0
 71
     5
 72
     5
  1
Bader
  7
Textstil57
 73
     1
 44
1.0
  0
XRECORD
  5
998
102
{ACAD_REACTORS
330
84F
102
}
330
84F
100
AcDbXrecord
280
     1
102
ACAD_MATT_HEIGHT
140
1.800000071525573
  0
XRECORD
  5
99B
102
{ACAD_REACTORS
330
852
102
}
330
852
100
AcDbXrecord
280
     1
 70
     4
 70
     0
 70
     0
 40
1.0
  2
Status3
  1
Embedded Object
 10
141.2627883584022
 20
128.9632056155222
 30
0.0
 40
1.800000071525573
 41
6.632595015006507
 46
0.0
 71
     5
 72
     5
  1
C
  7
Textstil57
 73
     1
 44
1.0
  0
XRECORD
  5
99A
102
{ACAD_REACTORS
330
852
102
}
330
852
100
AcDbXrecord
280
     1
102
ACAD_MATT_HEIGHT
140
1.800000071525573
  0
XRECORD
  5
99D
102
{ACAD_REACTORS
330
855
102
}
330
855
100
AcDbXrecord
280
     1
 70
     4
 70
     0
 70
     0
 40
1.0
  2
Änderungen3
  1
Embedded Object
 10
158.6264137958634
 20
128.9632056155222
 30
0.0
 40
1.800000071525573
 41
26.06039472470172
 46
0.0
 71
     5
 72
     5
  1
SW entfernt
  7
Textstil57
 73
     1
 44
1.0
  0
XRECORD
  5
99C
102
{ACAD_REACTORS
330
855
102
}
330
855
100
AcDbXrecord
280
     1
102
ACAD_MATT_HEIGHT
140
1.800000071525573
  0
XRECORD
  5
99F
102
{ACAD_REACTORS
330
858
102
}
330
858
100
AcDbXrecord
280
     1
 70
     4
 70
     0
 70
     0
 40
1.0
  2
Datum3
  1
Embedded Object
 10
177.3127883584022
 20
128.9632056155222
 30
0.0
 40
1.800000071525573
 41
11.23388242101747
 46
0.0
 71
     5
 72
     5
  1
21.11.13
  7
Textstil57
 73
     1
 44
1.0
  0
XRECORD
  5
99E
102
{ACAD_REACTORS
330
858
102
}
330
858
100
AcDbXrecord
280
     1
102
ACAD_MATT_HEIGHT
140
1.800000071525573
  0
XRECORD
  5
9A1
102
{ACAD_REACTORS
330
85B
102
}
330
85B
100
AcDbXrecord
280
     1
 70
     4
 70
     0
 70
     0
 40
1.0
  2
Name3
  1
Embedded Object
 10
187.3627883584022
 20
128.9632056155222
 30
0.0
 40
1.800000071525573
 41
5.3917823903582
 46
0.0
 71
     5
 72
     5
  1
Bader
  7
Textstil57
 73
     1
 44
1.0
  0
XRECORD
  5
9A0
102
{ACAD_REACTORS
330
85B
102
}
330
85B
100
AcDbXrecord
280
     1
102
ACAD_MATT_HEIGHT
140
1.800000071525573
  0
XRECORD
  5
9A3
102
{ACAD_REACTORS
330
85E
102
}
330
85E
100
AcDbXrecord
280
     1
 70
     4
 70
     0
 70
     0
 40
1.0
  2
Status4
  1
Embedded Object
 10
141.2627883584022
 20
133.2132056155222
 30
0.0
 40
1.800000071525573
 41
6.688366328908267
 46
0.0
 71
     5
 72
     5
  1
C
  7
Textstil57
 73
     1
 44
1.0
  0
XRECORD
  5
9A2
102
{ACAD_REACTORS
330
85E
102
}
330
85E
100
AcDbXrecord
280
     1
102
ACAD_MATT_HEIGHT
140
1.800000071525573
  0
XRECORD
  5
9A5
102
{ACAD_REACTORS
330
861
102
}
330
861
100
AcDbXrecord
280
     1
 70
     4
 70
     0
 70
     0
 40
1.0
  2
Änderungen4
  1
Embedded Object
 10
158.6264137958634
 20
133.2132056155222
 30
0.0
 40
1.800000071525573
 41
25.83384786890043
 46
0.0
 71
     5
 72
     5
  1
Maße als max. Maße 
  7
Textstil57
 73
     1
 44
1.0
  0
XRECORD
  5
9A4
102
{ACAD_REACTORS
330
861
102
}
330
861
100
AcDbXrecord
280
     1
102
ACAD_MATT_HEIGHT
140
1.800000071525573
  0
XRECORD
  5
9A7
102
{ACAD_REACTORS
330
864
102
}
330
864
100
AcDbXrecord
280
     1
 70
     4
 70
     0
 70
     0
 40
1.0
  2
Datum4
  1
Embedded Object
 10
177.3127883584022
 20
133.2132056155222
 30
0.0
 40
1.800000071525573
 41
11.19067108080422
 46
0.0
 71
     5
 72
     5
  1
21.11.13
  7
Textstil57
 73
     1
 44
1.0
  0
XRECORD
  5
9A6
102
{ACAD_REACTORS
330
864
102
}
330
864
100
AcDbXrecord
280
     1
102
ACAD_MATT_HEIGHT
140
1.800000071525573
  0
XRECORD
  5
9A9
102
{ACAD_REACTORS
330
867
102
}
330
867
100
AcDbXrecord
280
     1
 70
     4
 70
     0
 70
     0
 40
1.0
  2
Name4
  1
Embedded Object
 10
187.3627883584022
 20
133.2132056155222
 30
0.0
 40
1.800000071525573
 41
5.278027239458253
 46
0.0
 71
     5
 72
     5
  1
Bader
  7
Textstil57
 73
     1
 44
1.0
  0
XRECORD
  5
9A8
102
{ACAD_REACTORS
330
867
102
}
330
867
100
AcDbXrecord
280
     1
102
ACAD_MATT_HEIGHT
140
1.800000071525573
  0
XRECORD
  5
9AB
102
{ACAD_REACTORS
330
86A
102
}
330
86A
100
AcDbXrecord
280
     1
 70
     4
 70
     0
 70
     0
 40
1.0
  2
Status5
  1
Embedded Object
 10
141.2627883584022
 20
137.4632056155222
 30
0.0
 40
1.800000071525573
 41
6.699926087567503
 46
0.0
 71
     5
 72
     5
  1
C
  7
Textstil57
 73
     1
 44
1.0
  0
XRECORD
  5
9AA
102
{ACAD_REACTORS
330
86A
102
}
330
86A
100
AcDbXrecord
280
     1
102
ACAD_MATT_HEIGHT
140
1.800000071525573
  0
XRECORD
  5
9AD
102
{ACAD_REACTORS
330
86D
102
}
330
86D
100
AcDbXrecord
280
     1
 70
     4
 70
     0
 70
     0
 40
1.0
  2
Änderungen5
  1
Embedded Object
 10
158.6264137958634
 20
137.4632056155222
 30
0.0
 40
1.800000071525573
 41
25.86608902356204
 46
0.0
 71
     5
 72
     5
  1
Art.Nr. neu hinzu
  7
Textstil57
 73
     1
 44
1.0
  0
XRECORD
  5
9AC
102
{ACAD_REACTORS
330
86D
102
}
330
86D
100
AcDbXrecord
280
     1
102
ACAD_MATT_HEIGHT
140
1.800000071525573
  0
XRECORD
  5
9AF
102
{ACAD_REACTORS
330
870
102
}
330
870
100
AcDbXrecord
280
     1
 70
     4
 70
     0
 70
     0
 40
1.0
  2
Datum5
  1
Embedded Object
 10
177.3127883584022
 20
137.4632056155222
 30
0.0
 40
1.800000071525573
 41
11.09095292449815
 46
0.0
 71
     5
 72
     5
  1
21.11.13
  7
Textstil57
 73
     1
 44
1.0
  0
XRECORD
  5
9AE
102
{ACAD_REACTORS
330
870
102
}
330
870
100
AcDbXrecord
280
     1
102
ACAD_MATT_HEIGHT
140
1.800000071525573
  0
XRECORD
  5
9B1
102
{ACAD_REACTORS
330
873
102
}
330
873
100
AcDbXrecord
280
     1
 70
     4
 70
     0
 70
     0
 40
1.0
  2
Name5
  1
Embedded Object
 10
187.3627883584022
 20
137.4632056155222
 30
0.0
 40
1.800000071525573
 41
5.405852104200903
 46
0.0
 71
     5
 72
     5
  1
Bader
  7
Textstil57
 73
     1
 44
1.0
  0
XRECORD
  5
9B0
102
{ACAD_REACTORS
330
873
102
}
330
873
100
AcDbXrecord
280
     1
102
ACAD_MATT_HEIGHT
140
1.800000071525573
  0
XRECORD
  5
9B3
102
{ACAD_REACTORS
330
876
102
}
330
876
100
AcDbXrecord
280
     1
 70
     4
 70
     0
 70
     0
 40
1.0
  2
Status6
  1
Embedded Object
 10
141.2627883584022
 20
141.7132056155222
 30
0.0
 40
1.800000071525573
 41
6.626058417315795
 46
0.0
 71
     5
 72
     5
  1

  7
Textstil57
 73
     1
 44
1.0
  0
XRECORD
  5
9B2
102
{ACAD_REACTORS
330
876
102
}
330
876
100
AcDbXrecord
280
     1
102
ACAD_MATT_HEIGHT
140
1.800000071525573
  0
XRECORD
  5
9B5
102
{ACAD_REACTORS
330
879
102
}
330
879
100
AcDbXrecord
280
     1
 70
     4
 70
     0
 70
     0
 40
1.0
  2
Änderungen6
  1
Embedded Object
 10
158.6264137958634
 20
141.7132056155222
 30
0.0
 40
1.800000071525573
 41
25.88545129259238
 46
0.0
 71
     5
 72
     5
  1

  7
Textstil57
 73
     1
 44
1.0
  0
XRECORD
  5
9B4
102
{ACAD_REACTORS
330
879
102
}
330
879
100
AcDbXrecord
280
     1
102
ACAD_MATT_HEIGHT
140
1.800000071525573
  0
XRECORD
  5
9B7
102
{ACAD_REACTORS
330
87C
102
}
330
87C
100
AcDbXrecord
280
     1
 70
     4
 70
     0
 70
     0
 40
1.0
  2
Datum6
  1
Embedded Object
 10
177.3127883584022
 20
141.7132056155222
 30
0.0
 40
1.800000071525573
 41
11.11940549376804
 46
0.0
 71
     5
 72
     5
  1

  7
Textstil57
 73
     1
 44
1.0
  0
XRECORD
  5
9B6
102
{ACAD_REACTORS
330
87C
102
}
330
87C
100
AcDbXrecord
280
     1
102
ACAD_MATT_HEIGHT
140
1.800000071525573
  0
XRECORD
  5
9B9
102
{ACAD_REACTORS
330
87F
102
}
330
87F
100
AcDbXrecord
280
     1
 70
     4
 70
     0
 70
     0
 40
1.0
  2
Name6
  1
Embedded Object
 10
187.3627883584022
 20
141.7132056155222
 30
0.0
 40
1.800000071525573
 41
5.428906415697838
 46
0.0
 71
     5
 72
     5
  1

  7
Textstil57
 73
     1
 44
1.0
  0
XRECORD
  5
9B8
102
{ACAD_REACTORS
330
87F
102
}
330
87F
100
AcDbXrecord
280
     1
102
ACAD_MATT_HEIGHT
140
1.800000071525573
  0
XRECORD
  5
9BB
102
{ACAD_REACTORS
330
882
102
}
330
882
100
AcDbXrecord
280
     1
 70
     4
 70
     0
 70
     0
 40
1.0
  2
Status7
  1
Embedded Object
 10
141.2627883584022
 20
145.9632056155222
 30
0.0
 40
1.800000071525573
 41
6.754285458610205
 46
0.0
 71
     5
 72
     5
  1

  7
Textstil57
 73
     1
 44
1.0
  0
XRECORD
  5
9BA
102
{ACAD_REACTORS
330
882
102
}
330
882
100
AcDbXrecord
280
     1
102
ACAD_MATT_HEIGHT
140
1.800000071525573
  0
XRECORD
  5
9BD
102
{ACAD_REACTORS
330
885
102
}
330
885
100
AcDbXrecord
280
     1
 70
     4
 70
     0
 70
     0
 40
1.0
  2
Änderungen7
  1
Embedded Object
 10
158.6264137958634
 20
145.9632056155222
 30
0.0
 40
1.800000071525573
 41
25.83655907845781
 46
0.0
 71
     5
 72
     5
  1

  7
Textstil57
 73
     1
 44
1.0
  0
XRECORD
  5
9BC
102
{ACAD_REACTORS
330
885
102
}
330
885
100
AcDbXrecord
280
     1
102
ACAD_MATT_HEIGHT
140
1.800000071525573
  0
XRECORD
  5
9BF
102
{ACAD_REACTORS
330
888
102
}
330
888
100
AcDbXrecord
280
     1
 70
     4
 70
     0
 70
     0
 40
1.0
  2
Datum7
  1
Embedded Object
 10
177.3127883584022
 20
145.9632056155222
 30
0.0
 40
1.800000071525573
 41
11.21532305394055
 46
0.0
 71
     5
 72
     5
  1

  7
Textstil57
 73
     1
 44
1.0
  0
XRECORD
  5
9BE
102
{ACAD_REACTORS
330
888
102
}
330
888
100
AcDbXrecord
280
     1
102
ACAD_MATT_HEIGHT
140
1.800000071525573
  0
XRECORD
  5
9C1
102
{ACAD_REACTORS
330
88B
102
}
330
88B
100
AcDbXrecord
280
     1
 70
     4
 70
     0
 70
     0
 40
1.0
  2
Name7
  1
Embedded Object
 10
187.3627883584022
 20
145.9632056155222
 30
0.0
 40
1.800000071525573
 41
5.420890775717096
 46
0.0
 71
     5
 72
     5
  1

  7
Textstil57
 73
     1
 44
1.0
  0
XRECORD
  5
9C0
102
{ACAD_REACTORS
330
88B
102
}
330
88B
100
AcDbXrecord
280
     1
102
ACAD_MATT_HEIGHT
140
1.800000071525573
  0
XRECORD
  5
9C3
102
{ACAD_REACTORS
330
88E
102
}
330
88E
100
AcDbXrecord
280
     1
 70
     4
 70
     0
 70
     0
 40
1.0
  2
Status8
  1
Embedded Object
 10
141.2627883584022
 20
150.2132056155222
 30
0.0
 40
1.800000071525573
 41
7.072581688594183
 46
0.0
 71
     5
 72
     5
  1

  7
Textstil57
 73
     1
 44
1.0
  0
XRECORD
  5
9C2
102
{ACAD_REACTORS
330
88E
102
}
330
88E
100
AcDbXrecord
280
     1
102
ACAD_MATT_HEIGHT
140
1.800000071525573
  0
XRECORD
  5
9C5
102
{ACAD_REACTORS
330
891
102
}
330
891
100
AcDbXrecord
280
     1
 70
     4
 70
     0
 70
     0
 40
1.0
  2
Änderungen8
  1
Embedded Object
 10
158.6264137958634
 20
150.2132056155222
 30
0.0
 40
1.800000071525573
 41
25.96818377206723
 46
0.0
 71
     5
 72
     5
  1

  7
Textstil57
 73
     1
 44
1.0
  0
XRECORD
  5
9C4
102
{ACAD_REACTORS
330
891
102
}
330
891
100
AcDbXrecord
280
     1
102
ACAD_MATT_HEIGHT
140
1.800000071525573
  0
XRECORD
  5
9C7
102
{ACAD_REACTORS
330
894
102
}
330
894
100
AcDbXrecord
280
     1
 70
     4
 70
     0
 70
     0
 40
1.0
  2
Datum8
  1
Embedded Object
 10
177.3127883584022
 20
150.2132056155222
 30
0.0
 40
1.800000071525573
 41
11.38711363965775
 46
0.0
 71
     5
 72
     5
  1

  7
Textstil57
 73
     1
 44
1.0
  0
XRECORD
  5
9C6
102
{ACAD_REACTORS
330
894
102
}
330
894
100
AcDbXrecord
280
     1
102
ACAD_MATT_HEIGHT
140
1.800000071525573
  0
XRECORD
  5
9C9
102
{ACAD_REACTORS
330
897
102
}
330
897
100
AcDbXrecord
280
     1
 70
     4
 70
     0
 70
     0
 40
1.0
  2
Name8
  1
Embedded Object
 10
187.3627883584022
 20
150.2132056155222
 30
0.0
 40
1.800000071525573
 41
5.452682396208246
 46
0.0
 71
     5
 72
     5
  1

  7
Textstil57
 73
     1
 44
1.0
  0
XRECORD
  5
9C8
102
{ACAD_REACTORS
330
897
102
}
330
897
100
AcDbXrecord
280
     1
102
ACAD_MATT_HEIGHT
140
1.800000071525573
  0
XRECORD
  5
9CB
102
{ACAD_REACTORS
330
89A
102
}
330
89A
100
AcDbXrecord
280
     1
 70
     4
 70
     0
 70
     0
 40
1.0
  2
Artikelnummer_neu
  1
Embedded Object
 10
164.8127883584022
 20
160.5882056485259
 30
0.0
 40
3.499999940395355
 41
50.99999999999997
 46
0.0
 71
     5
 72
     5
  1
101551
  7
Textstil59
 73
     1
 44
1.0
  0
XRECORD
  5
9CA
102
{ACAD_REACTORS
330
89A
102
}
330
89A
100
AcDbXrecord
280
     1
102
ACAD_MATT_HEIGHT
140
3.499999940395355
  0
XRECORD
  5
9CD
102
{ACAD_REACTORS
330
89D
102
}
330
89D
100
AcDbXrecord
280
     1
 70
     4
 70
     0
 70
     0
 40
1.0
  2
Artikelnummer_alt
  1
Embedded Object
 10
164.8127883584022
 20
156.3382056155221
 30
0.0
 40
2.5
 41
43.99999999999997
 46
0.0
 71
     2
 72
     5
  1
(27.005.087)
  7
Textstil54
 73
     1
 44
1.0
  0
XRECORD
  5
9CC
102
{ACAD_REACTORS
330
89D
102
}
330
89D
100
AcDbXrecord
280
     1
102
ACAD_MATT_HEIGHT
140
2.5
  0
XRECORD
  5
9CF
102
{ACAD_REACTORS
330
8A0
102
}
330
8A0
100
AcDbXrecord
280
     1
 70
     4
 70
     0
 70
     0
 40
1.0
  2
Material
  1
Embedded Object
 10
310.8360288650731
 20
165.9632056155222
 30
0.0
 40
3.000000119209288
 41
34.74493902527111
 46
0.0
 71
     5
 72
     5
  1
Messing vern.
  7
Textstil56
 73
     1
 44
1.0
  0
XRECORD
  5
9CE
102
{ACAD_REACTORS
330
8A0
102
}
330
8A0
100
AcDbXrecord
280
     1
102
ACAD_MATT_HEIGHT
140
3.000000119209288
  0
XRECORD
  5
9D1
102
{ACAD_REACTORS
330
8A3
102
}
330
8A3
100
AcDbXrecord
280
     1
 70
     4
 70
     0
 70
     0
 40
1.0
  2
Maßstab
  1
Embedded Object
 10
266.2975583892088
 20
165.9632056155222
 30
0.0
 40
3.000000119209288
 41
27.29612920574588
 46
0.0
 71
     5
 72
     5
  1
2:1
  7
Textstil56
 73
     1
 44
1.0
  0
XRECORD
  5
9D0
102
{ACAD_REACTORS
330
8A3
102
}
330
8A3
100
AcDbXrecord
280
     1
102
ACAD_MATT_HEIGHT
140
3.000000119209288
  0
XRECORD
  5
9D3
102
{ACAD_REACTORS
330
8A6
102
}
330
8A6
100
AcDbXrecord
280
     1
 70
     4
 70
     0
 70
     0
 40
1.0
  2
Gezeichnet_Datum
  1
Embedded Object
 10
210.3127883584022
 20
145.9632056155222
 30
0.0
 40
1.800000071525573
 41
10.4471256074499
 46
0.0
 71
     5
 72
     5
  1
21.11.13
  7
Textstil57
 73
     1
 44
1.0
  0
XRECORD
  5
9D2
102
{ACAD_REACTORS
330
8A6
102
}
330
8A6
100
AcDbXrecord
280
     1
102
ACAD_MATT_HEIGHT
140
1.800000071525573
  0
XRECORD
  5
9D5
102
{ACAD_REACTORS
330
8A9
102
}
330
8A9
100
AcDbXrecord
280
     1
 70
     4
 70
     0
 70
     0
 40
1.0
  2
Gezeichnet_Name
  1
Embedded Object
 10
227.2127883584022
 20
145.9632056155222
 30
0.0
 40
1.800000071525573
 41
18.09852783198174
 46
0.0
 71
     5
 72
     5
  1
Bader
  7
Textstil57
 73
     1
 44
1.0
  0
XRECORD
  5
9D4
102
{ACAD_REACTORS
330
8A9
102
}
330
8A9
100
AcDbXrecord
280
     1
102
ACAD_MATT_HEIGHT
140
1.800000071525573
  0
XRECORD
  5
9D7
102
{ACAD_REACTORS
330
8AC
102
}
330
8AC
100
AcDbXrecord
280
     1
 70
     4
 70
     0
 70
     0
 40
1.0
  2
Benennung
  1
Embedded Object
 10
274.0127883584021
 20
122.7378396410893
 30
0.0
 40
4.000000059604643
 41
0.0
 46
0.0
 71
     5
 72
     5
  1

  7
Textstil53
 73
     1
 44
1.0
  0
XRECORD
  5
9D6
102
{ACAD_REACTORS
330
8AC
102
}
330
8AC
100
AcDbXrecord
280
     1
102
ACAD_MATT_HEIGHT
140
4.000000059604643
  0
XRECORD
  5
9D9
102
{ACAD_REACTORS
330
8AF
102
}
330
8AF
100
AcDbXrecord
280
     1
 70
     4
 70
     0
 70
     0
 40
1.0
  2
Zeichnungsnummer
  1
Embedded Object
 10
267.5016718628334
 20
116.2132056155221
 30
0.0
 40
2.5
 41
59.0703335759867
 46
0.0
 71
     4
 72
     5
  1
AN GEA 25 C
  7
Textstil54
 73
     1
 44
1.0
  0
XRECORD
  5
9D8
102
{ACAD_REACTORS
330
8AF
102
}
330
8AF
100
AcDbXrecord
280
     1
102
ACAD_MATT_HEIGHT
140
2.5
  0
XRECORD
  5
9DB
102
{ACAD_REACTORS
330
8B2
102
}
330
8B2
100
AcDbXrecord
280
     1
 70
     4
 70
     0
 70
     0
 40
1.0
  2
Ers._für
  1
Embedded Object
 10
220.1587946285556
 20
116.2132056155221
 30
0.0
 40
2.5
 41
31.93674790530494
 46
0.0
 71
     5
 72
     5
  1
AN GEA 25 B
  7
Textstil54
 73
     1
 44
1.0
  0
XRECORD
  5
9DA
102
{ACAD_REACTORS
330
8B2
102
}
330
8B2
100
AcDbXrecord
280
     1
102
ACAD_MATT_HEIGHT
140
2.5
  0
XRECORD
  5
9DD
102
{ACAD_REACTORS
330
8B5
102
}
330
8B5
100
AcDbXrecord
280
     1
 70
     4
 70
     0
 70
     0
 40
1.0
  2
Projekt
  1
Embedded Object
 10
214.2127883584022
 20
122.7378396410892
 30
0.0
 40
4.000000059604643
 41
42.19412822251534
 46
0.0
 71
     5
 72
     5
  1
Anschlussteile
  7
Textstil53
 73
     1
 44
1.0
  0
XRECORD
  5
9DC
102
{ACAD_REACTORS
330
8B5
102
}
330
8B5
100
AcDbXrecord
280
     1
102
ACAD_MATT_HEIGHT
140
4.000000059604643
  0
XRECORD
  5
9DF
102
{ACAD_REACTORS
330
8B8
102
}
330
8B8
100
AcDbXrecord
280
     1
 70
     4
 70
     0
 70
     0
 40
1.0
  2
Kontroll_Datum
  1
Embedded Object
 10
210.3127883584023
 20
141.7132056155222
 30
0.0
 40
1.800000071525573
 41
9.601114343192731
 46
0.0
 71
     5
 72
     5
  1
21.11.13
  7
Textstil57
 73
     1
 44
1.0
  0
XRECORD
  5
9DE
102
{ACAD_REACTORS
330
8B8
102
}
330
8B8
100
AcDbXrecord
280
     1
102
ACAD_MATT_HEIGHT
140
1.800000071525573
  0
XRECORD
  5
9E1
102
{ACAD_REACTORS
330
8BB
102
}
330
8BB
100
AcDbXrecord
280
     1
 70
     4
 70
     0
 70
     0
 40
1.0
  2
Kontroll__Name
  1
Embedded Object
 10
227.2127883584022
 20
141.7132056155222
 30
0.0
 40
1.800000071525573
 41
17.61893067328372
 46
0.0
 71
     5
 72
     5
  1
Hildenbrand
  7
Textstil57
 73
     1
 44
1.0
  0
XRECORD
  5
9E0
102
{ACAD_REACTORS
330
8BB
102
}
330
8BB
100
AcDbXrecord
280
     1
102
ACAD_MATT_HEIGHT
140
1.800000071525573
  0
XRECORD
  5
9E3
102
{ACAD_REACTORS
330
8BE
102
}
330
8BE
100
AcDbXrecord
280
     1
 70
     2
 70
     0
 70
     0
 40
1.0
  2
Blattgröße
  1
Embedded Object
 10
95.97693941797869
 20
8.536262163870711
 30
0.0
 40
1.25
 41
9.93741750717163
 46
0.0
 71
     5
 72
     5
  1
A4
  7
Notiztext (DIN)
 73
     1
 44
1.0
  0
XRECORD
  5
9E2
102
{ACAD_REACTORS
330
8BE
102
}
330
8BE
100
AcDbXrecord
280
     1
102
ACAD_MATT_HEIGHT
140
1.25
  0
XRECORD
  5
9E5
102
{ACAD_REACTORS
330
8C1
102
}
330
8C1
100
AcDbXrecord
280
     1
 70
     2
 70
     0
 70
     0
 40
1.0
  2
Blattnummer
  1
Embedded Object
 10
96.36964004634279
 20
11.75115988278491
 30
0.0
 40
2.5
 41
22.49072313308716
 46
0.0
 71
     5
 72
     5
  1
1 
  7
Textstil29
 73
     1
 44
1.0
  0
XRECORD
  5
9E4
102
{ACAD_REACTORS
330
8C1
102
}
330
8C1
100
AcDbXrecord
280
     1
102
ACAD_MATT_HEIGHT
140
2.5
  0
XRECORD
  5
9E7
102
{ACAD_REACTORS
330
8C4
102
}
330
8C4
100
AcDbXrecord
280
     1
 70
     2
 70
     0
 70
     0
 40
1.0
  2
Status1
  1
Embedded Object
 10
6.874999999999964
 20
8.187500000000005
 30
0.0
 40
0.9000000357627866
 41
3.357172624588038
 46
0.0
 71
     5
 72
     5
  1
B
  7
Textstil57
 73
     1
 44
1.0
  0
XRECORD
  5
9E6
102
{ACAD_REACTORS
330
8C4
102
}
330
8C4
100
AcDbXrecord
280
     1
102
ACAD_MATT_HEIGHT
140
0.9000000357627866
  0
XRECORD
  5
9E9
102
{ACAD_REACTORS
330
8C7
102
}
330
8C7
100
AcDbXrecord
280
     1
 70
     2
 70
     0
 70
     0
 40
1.0
  2
Änderungen1
  1
Embedded Object
 10
15.55681271873055
 20
8.187500000000012
 30
0.0
 40
0.9000000357627866
 41
12.96620761010651
 46
0.0
 71
     5
 72
     5
  1
Artikelnr. geändert
  7
Textstil57
 73
     1
 44
1.0
  0
XRECORD
  5
9E8
102
{ACAD_REACTORS
330
8C7
102
}
330
8C7
100
AcDbXrecord
280
     1
102
ACAD_MATT_HEIGHT
140
0.9000000357627866
  0
XRECORD
  5
9EB
102
{ACAD_REACTORS
330
8CA
102
}
330
8CA
100
AcDbXrecord
280
     1
 70
     2
 70
     0
 70
     0
 40
1.0
  2
Datum1
  1
Embedded Object
 10
24.89999999999995
 20
8.187500000000005
 30
0.0
 40
0.9000000357627866
 41
5.67265925740429
 46
0.0
 71
     5
 72
     5
  1
30.12.10
  7
Textstil57
 73
     1
 44
1.0
  0
XRECORD
  5
9EA
102
{ACAD_REACTORS
330
8CA
102
}
330
8CA
100
AcDbXrecord
280
     1
102
ACAD_MATT_HEIGHT
140
0.9000000357627866
  0
XRECORD
  5
9ED
102
{ACAD_REACTORS
330
8CD
102
}
330
8CD
100
AcDbXrecord
280
     1
 70
     2
 70
     0
 70
     0
 40
1.0
  2
Name1
  1
Embedded Object
 10
29.92499999999996
 20
8.187500000000005
 30
0.0
 40
0.9000000357627866
 41
3.673804312316839
 46
0.0
 71
     5
 72
     5
  1
Bader
  7
Textstil57
 73
     1
 44
1.0
  0
XRECORD
  5
9EC
102
{ACAD_REACTORS
330
8CD
102
}
330
8CD
100
AcDbXrecord
280
     1
102
ACAD_MATT_HEIGHT
140
0.9000000357627866
  0
XRECORD
  5
9EF
102
{ACAD_REACTORS
330
8D0
102
}
330
8D0
100
AcDbXrecord
280
     1
 70
     2
 70
     0
 70
     0
 40
1.0
  2
Status2
  1
Embedded Object
 10
6.874999999999964
 20
10.31250000000001
 30
0.0
 40
0.9000000357627866
 41
3.304283514263398
 46
0.0
 71
     5
 72
     5
  1
C
  7
Textstil57
 73
     1
 44
1.0
  0
XRECORD
  5
9EE
102
{ACAD_REACTORS
330
8D0
102
}
330
8D0
100
AcDbXrecord
280
     1
102
ACAD_MATT_HEIGHT
140
0.9000000357627866
  0
XRECORD
  5
9F1
102
{ACAD_REACTORS
330
8D3
102
}
330
8D3
100
AcDbXrecord
280
     1
 70
     2
 70
     0
 70
     0
 40
1.0
  2
Änderungen2
  1
Embedded Object
 10
15.55681271873055
 20
10.31250000000001
 30
0.0
 40
0.9000000357627866
 41
12.95730463290482
 46
0.0
 71
     5
 72
     5
  1
Text ergänzt
  7
Textstil57
 73
     1
 44
1.0
  0
XRECORD
  5
9F0
102
{ACAD_REACTORS
330
8D3
102
}
330
8D3
100
AcDbXrecord
280
     1
102
ACAD_MATT_HEIGHT
140
0.9000000357627866
  0
XRECORD
  5
9F3
102
{ACAD_REACTORS
330
8D6
102
}
330
8D6
100
AcDbXrecord
280
     1
 70
     2
 70
     0
 70
     0
 40
1.0
  2
Datum2
  1
Embedded Object
 10
24.89999999999995
 20
10.31250000000001
 30
0.0
 40
0.9000000357627866
 41
5.671507744907983
 46
0.0
 71
     5
 72
     5
  1
21.11.13
  7
Textstil57
 73
     1
 44
1.0
  0
XRECORD
  5
9F2
102
{ACAD_REACTORS
330
8D6
102
}
330
8D6
100
AcDbXrecord
280
     1
102
ACAD_MATT_HEIGHT
140
0.9000000357627866
  0
XRECORD
  5
9F5
102
{ACAD_REACTORS
330
8D9
102
}
330
8D9
100
AcDbXrecord
280
     1
 70
     2
 70
     0
 70
     0
 40
1.0
  2
Name2
  1
Embedded Object
 10
29.92499999999996
 20
10.31250000000001
 30
0.0
 40
0.9000000357627866
 41
2.727205322256124
 46
0.0
 71
     5
 72
     5
  1
Bader
  7
Textstil57
 73
     1
 44
1.0
  0
XRECORD
  5
9F4
102
{ACAD_REACTORS
330
8D9
102
}
330
8D9
100
AcDbXrecord
280
     1
102
ACAD_MATT_HEIGHT
140
0.9000000357627866
  0
XRECORD
  5
9F7
102
{ACAD_REACTORS
330
8DC
102
}
330
8DC
100
AcDbXrecord
280
     1
 70
     2
 70
     0
 70
     0
 40
1.0
  2
Status3
  1
Embedded Object
 10
6.874999999999964
 20
12.43750000000001
 30
0.0
 40
0.9000000357627866
 41
3.316297507503253
 46
0.0
 71
     5
 72
     5
  1
C
  7
Textstil57
 73
     1
 44
1.0
  0
XRECORD
  5
9F6
102
{ACAD_REACTORS
330
8DC
102
}
330
8DC
100
AcDbXrecord
280
     1
102
ACAD_MATT_HEIGHT
140
0.9000000357627866
  0
XRECORD
  5
9F9
102
{ACAD_REACTORS
330
8DF
102
}
330
8DF
100
AcDbXrecord
280
     1
 70
     2
 70
     0
 70
     0
 40
1.0
  2
Änderungen3
  1
Embedded Object
 10
15.55681271873055
 20
12.43750000000001
 30
0.0
 40
0.9000000357627866
 41
13.03019736235086
 46
0.0
 71
     5
 72
     5
  1
SW entfernt
  7
Textstil57
 73
     1
 44
1.0
  0
XRECORD
  5
9F8
102
{ACAD_REACTORS
330
8DF
102
}
330
8DF
100
AcDbXrecord
280
     1
102
ACAD_MATT_HEIGHT
140
0.9000000357627866
  0
XRECORD
  5
9FB
102
{ACAD_REACTORS
330
8E2
102
}
330
8E2
100
AcDbXrecord
280
     1
 70
     2
 70
     0
 70
     0
 40
1.0
  2
Datum3
  1
Embedded Object
 10
24.89999999999995
 20
12.43750000000001
 30
0.0
 40
0.9000000357627866
 41
5.616941210508733
 46
0.0
 71
     5
 72
     5
  1
21.11.13
  7
Textstil57
 73
     1
 44
1.0
  0
XRECORD
  5
9FA
102
{ACAD_REACTORS
330
8E2
102
}
330
8E2
100
AcDbXrecord
280
     1
102
ACAD_MATT_HEIGHT
140
0.9000000357627866
  0
XRECORD
  5
9FD
102
{ACAD_REACTORS
330
8E5
102
}
330
8E5
100
AcDbXrecord
280
     1
 70
     2
 70
     0
 70
     0
 40
1.0
  2
Name3
  1
Embedded Object
 10
29.92499999999996
 20
12.43750000000001
 30
0.0
 40
0.9000000357627866
 41
2.6958911951791
 46
0.0
 71
     5
 72
     5
  1
Bader
  7
Textstil57
 73
     1
 44
1.0
  0
XRECORD
  5
9FC
102
{ACAD_REACTORS
330
8E5
102
}
330
8E5
100
AcDbXrecord
280
     1
102
ACAD_MATT_HEIGHT
140
0.9000000357627866
  0
XRECORD
  5
9FF
102
{ACAD_REACTORS
330
8E8
102
}
330
8E8
100
AcDbXrecord
280
     1
 70
     2
 70
     0
 70
     0
 40
1.0
  2
Status4
  1
Embedded Object
 10
6.874999999999964
 20
14.56250000000001
 30
0.0
 40
0.9000000357627866
 41
3.344183164454133
 46
0.0
 71
     5
 72
     5
  1
C
  7
Textstil57
 73
     1
 44
1.0
  0
XRECORD
  5
9FE
102
{ACAD_REACTORS
330
8E8
102
}
330
8E8
100
AcDbXrecord
280
     1
102
ACAD_MATT_HEIGHT
140
0.9000000357627866
  0
XRECORD
  5
A01
102
{ACAD_REACTORS
330
8EB
102
}
330
8EB
100
AcDbXrecord
280
     1
 70
     2
 70
     0
 70
     0
 40
1.0
  2
Änderungen4
  1
Embedded Object
 10
15.55681271873055
 20
14.56250000000001
 30
0.0
 40
0.9000000357627866
 41
12.91692393445021
 46
0.0
 71
     5
 72
     5
  1
Maße als max. Maße 
  7
Textstil57
 73
     1
 44
1.0
  0
XRECORD
  5
A00
102
{ACAD_REACTORS
330
8EB
102
}
330
8EB
100
AcDbXrecord
280
     1
102
ACAD_MATT_HEIGHT
140
0.9000000357627866
  0
XRECORD
  5
A03
102
{ACAD_REACTORS
330
8EE
102
}
330
8EE
100
AcDbXrecord
280
     1
 70
     2
 70
     0
 70
     0
 40
1.0
  2
Datum4
  1
Embedded Object
 10
24.89999999999995
 20
14.56250000000001
 30
0.0
 40
0.9000000357627866
 41
5.595335540402111
 46
0.0
 71
     5
 72
     5
  1
21.11.13
  7
Textstil57
 73
     1
 44
1.0
  0
XRECORD
  5
A02
102
{ACAD_REACTORS
330
8EE
102
}
330
8EE
100
AcDbXrecord
280
     1
102
ACAD_MATT_HEIGHT
140
0.9000000357627866
  0
XRECORD
  5
A05
102
{ACAD_REACTORS
330
8F1
102
}
330
8F1
100
AcDbXrecord
280
     1
 70
     2
 70
     0
 70
     0
 40
1.0
  2
Name4
  1
Embedded Object
 10
29.92499999999996
 20
14.56250000000001
 30
0.0
 40
0.9000000357627866
 41
2.639013619729126
 46
0.0
 71
     5
 72
     5
  1
Bader
  7
Textstil57
 73
     1
 44
1.0
  0
XRECORD
  5
A04
102
{ACAD_REACTORS
330
8F1
102
}
330
8F1
100
AcDbXrecord
280
     1
102
ACAD_MATT_HEIGHT
140
0.9000000357627866
  0
XRECORD
  5
A07
102
{ACAD_REACTORS
330
8F4
102
}
330
8F4
100
AcDbXrecord
280
     1
 70
     2
 70
     0
 70
     0
 40
1.0
  2
Status5
  1
Embedded Object
 10
6.874999999999964
 20
16.68750000000002
 30
0.0
 40
0.9000000357627866
 41
3.349963043783751
 46
0.0
 71
     5
 72
     5
  1
C
  7
Textstil57
 73
     1
 44
1.0
  0
XRECORD
  5
A06
102
{ACAD_REACTORS
330
8F4
102
}
330
8F4
100
AcDbXrecord
280
     1
102
ACAD_MATT_HEIGHT
140
0.9000000357627866
  0
XRECORD
  5
A09
102
{ACAD_REACTORS
330
8F7
102
}
330
8F7
100
AcDbXrecord
280
     1
 70
     2
 70
     0
 70
     0
 40
1.0
  2
Änderungen5
  1
Embedded Object
 10
15.55681271873055
 20
16.68750000000002
 30
0.0
 40
0.9000000357627866
 41
12.93304451178102
 46
0.0
 71
     5
 72
     5
  1
Art.Nr. neu hinzu
  7
Textstil57
 73
     1
 44
1.0
  0
XRECORD
  5
A08
102
{ACAD_REACTORS
330
8F7
102
}
330
8F7
100
AcDbXrecord
280
     1
102
ACAD_MATT_HEIGHT
140
0.9000000357627866
  0
XRECORD
  5
A0B
102
{ACAD_REACTORS
330
8FA
102
}
330
8FA
100
AcDbXrecord
280
     1
 70
     2
 70
     0
 70
     0
 40
1.0
  2
Datum5
  1
Embedded Object
 10
24.89999999999995
 20
16.68750000000002
 30
0.0
 40
0.9000000357627866
 41
5.545476462249077
 46
0.0
 71
     5
 72
     5
  1
21.11.13
  7
Textstil57
 73
     1
 44
1.0
  0
XRECORD
  5
A0A
102
{ACAD_REACTORS
330
8FA
102
}
330
8FA
100
AcDbXrecord
280
     1
102
ACAD_MATT_HEIGHT
140
0.9000000357627866
  0
XRECORD
  5
A0D
102
{ACAD_REACTORS
330
8FD
102
}
330
8FD
100
AcDbXrecord
280
     1
 70
     2
 70
     0
 70
     0
 40
1.0
  2
Name5
  1
Embedded Object
 10
29.92499999999996
 20
16.68750000000002
 30
0.0
 40
0.9000000357627866
 41
2.70292605210045
 46
0.0
 71
     5
 72
     5
  1
Bader
  7
Textstil57
 73
     1
 44
1.0
  0
XRECORD
  5
A0C
102
{ACAD_REACTORS
330
8FD
102
}
330
8FD
100
AcDbXrecord
280
     1
102
ACAD_MATT_HEIGHT
140
0.9000000357627866
  0
XRECORD
  5
A0F
102
{ACAD_REACTORS
330
900
102
}
330
900
100
AcDbXrecord
280
     1
 70
     2
 70
     0
 70
     0
 40
1.0
  2
Status6
  1
Embedded Object
 10
6.874999999999964
 20
18.81250000000002
 30
0.0
 40
0.9000000357627866
 41
3.313029208657897
 46
0.0
 71
     5
 72
     5
  1

  7
Textstil57
 73
     1
 44
1.0
  0
XRECORD
  5
A0E
102
{ACAD_REACTORS
330
900
102
}
330
900
100
AcDbXrecord
280
     1
102
ACAD_MATT_HEIGHT
140
0.9000000357627866
  0
XRECORD
  5
A11
102
{ACAD_REACTORS
330
903
102
}
330
903
100
AcDbXrecord
280
     1
 70
     2
 70
     0
 70
     0
 40
1.0
  2
Änderungen6
  1
Embedded Object
 10
15.55681271873055
 20
18.81250000000002
 30
0.0
 40
0.9000000357627866
 41
12.94272564629619
 46
0.0
 71
     5
 72
     5
  1

  7
Textstil57
 73
     1
 44
1.0
  0
XRECORD
  5
A10
102
{ACAD_REACTORS
330
903
102
}
330
903
100
AcDbXrecord
280
     1
102
ACAD_MATT_HEIGHT
140
0.9000000357627866
  0
XRECORD
  5
A13
102
{ACAD_REACTORS
330
906
102
}
330
906
100
AcDbXrecord
280
     1
 70
     2
 70
     0
 70
     0
 40
1.0
  2
Datum6
  1
Embedded Object
 10
24.89999999999995
 20
18.81250000000002
 30
0.0
 40
0.9000000357627866
 41
5.559702746884019
 46
0.0
 71
     5
 72
     5
  1

  7
Textstil57
 73
     1
 44
1.0
  0
XRECORD
  5
A12
102
{ACAD_REACTORS
330
906
102
}
330
906
100
AcDbXrecord
280
     1
102
ACAD_MATT_HEIGHT
140
0.9000000357627866
  0
XRECORD
  5
A15
102
{ACAD_REACTORS
330
909
102
}
330
909
100
AcDbXrecord
280
     1
 70
     2
 70
     0
 70
     0
 40
1.0
  2
Name6
  1
Embedded Object
 10
29.92499999999996
 20
18.81250000000002
 30
0.0
 40
0.9000000357627866
 41
2.714453207848919
 46
0.0
 71
     5
 72
     5
  1

  7
Textstil57
 73
     1
 44
1.0
  0
XRECORD
  5
A14
102
{ACAD_REACTORS
330
909
102
}
330
909
100
AcDbXrecord
280
     1
102
ACAD_MATT_HEIGHT
140
0.9000000357627866
  0
XRECORD
  5
A17
102
{ACAD_REACTORS
330
90C
102
}
330
90C
100
AcDbXrecord
280
     1
 70
     2
 70
     0
 70
     0
 40
1.0
  2
Status7
  1
Embedded Object
 10
6.874999999999964
 20
20.93750000000003
 30
0.0
 40
0.9000000357627866
 41
3.377142729305102
 46
0.0
 71
     5
 72
     5
  1

  7
Textstil57
 73
     1
 44
1.0
  0
XRECORD
  5
A16
102
{ACAD_REACTORS
330
90C
102
}
330
90C
100
AcDbXrecord
280
     1
102
ACAD_MATT_HEIGHT
140
0.9000000357627866
  0
XRECORD
  5
A19
102
{ACAD_REACTORS
330
90F
102
}
330
90F
100
AcDbXrecord
280
     1
 70
     2
 70
     0
 70
     0
 40
1.0
  2
Änderungen7
  1
Embedded Object
 10
15.55681271873055
 20
20.93750000000003
 30
0.0
 40
0.9000000357627866
 41
12.9182795392289
 46
0.0
 71
     5
 72
     5
  1

  7
Textstil57
 73
     1
 44
1.0
  0
XRECORD
  5
A18
102
{ACAD_REACTORS
330
90F
102
}
330
90F
100
AcDbXrecord
280
     1
102
ACAD_MATT_HEIGHT
140
0.9000000357627866
  0
XRECORD
  5
A1B
102
{ACAD_REACTORS
330
912
102
}
330
912
100
AcDbXrecord
280
     1
 70
     2
 70
     0
 70
     0
 40
1.0
  2
Datum7
  1
Embedded Object
 10
24.89999999999995
 20
20.93750000000003
 30
0.0
 40
0.9000000357627866
 41
5.607661526970275
 46
0.0
 71
     5
 72
     5
  1

  7
Textstil57
 73
     1
 44
1.0
  0
XRECORD
  5
A1A
102
{ACAD_REACTORS
330
912
102
}
330
912
100
AcDbXrecord
280
     1
102
ACAD_MATT_HEIGHT
140
0.9000000357627866
  0
XRECORD
  5
A1D
102
{ACAD_REACTORS
330
915
102
}
330
915
100
AcDbXrecord
280
     1
 70
     2
 70
     0
 70
     0
 40
1.0
  2
Name7
  1
Embedded Object
 10
29.92499999999996
 20
20.93750000000003
 30
0.0
 40
0.9000000357627866
 41
2.710445387858548
 46
0.0
 71
     5
 72
     5
  1

  7
Textstil57
 73
     1
 44
1.0
  0
XRECORD
  5
A1C
102
{ACAD_REACTORS
330
915
102
}
330
915
100
AcDbXrecord
280
     1
102
ACAD_MATT_HEIGHT
140
0.9000000357627866
  0
XRECORD
  5
A1F
102
{ACAD_REACTORS
330
918
102
}
330
918
100
AcDbXrecord
280
     1
 70
     2
 70
     0
 70
     0
 40
1.0
  2
Status8
  1
Embedded Object
 10
6.874999999999964
 20
23.06250000000004
 30
0.0
 40
0.9000000357627866
 41
3.536290844297091
 46
0.0
 71
     5
 72
     5
  1

  7
Textstil57
 73
     1
 44
1.0
  0
XRECORD
  5
A1E
102
{ACAD_REACTORS
330
918
102
}
330
918
100
AcDbXrecord
280
     1
102
ACAD_MATT_HEIGHT
140
0.9000000357627866
  0
XRECORD
  5
A21
102
{ACAD_REACTORS
330
91B
102
}
330
91B
100
AcDbXrecord
280
     1
 70
     2
 70
     0
 70
     0
 40
1.0
  2
Änderungen8
  1
Embedded Object
 10
15.55681271873055
 20
23.06250000000004
 30
0.0
 40
0.9000000357627866
 41
12.98409188603361
 46
0.0
 71
     5
 72
     5
  1

  7
Textstil57
 73
     1
 44
1.0
  0
XRECORD
  5
A20
102
{ACAD_REACTORS
330
91B
102
}
330
91B
100
AcDbXrecord
280
     1
102
ACAD_MATT_HEIGHT
140
0.9000000357627866
  0
XRECORD
  5
A23
102
{ACAD_REACTORS
330
91E
102
}
330
91E
100
AcDbXrecord
280
     1
 70
     2
 70
     0
 70
     0
 40
1.0
  2
Datum8
  1
Embedded Object
 10
24.89999999999995
 20
23.06250000000004
 30
0.0
 40
0.9000000357627866
 41
5.693556819828877
 46
0.0
 71
     5
 72
     5
  1

  7
Textstil57
 73
     1
 44
1.0
  0
XRECORD
  5
A22
102
{ACAD_REACTORS
330
91E
102
}
330
91E
100
AcDbXrecord
280
     1
102
ACAD_MATT_HEIGHT
140
0.9000000357627866
  0
XRECORD
  5
A25
102
{ACAD_REACTORS
330
921
102
}
330
921
100
AcDbXrecord
280
     1
 70
     2
 70
     0
 70
     0
 40
1.0
  2
Name8
  1
Embedded Object
 10
29.92499999999996
 20
23.06250000000004
 30
0.0
 40
0.9000000357627866
 41
2.726341198104123
 46
0.0
 71
     5
 72
     5
  1

  7
Textstil57
 73
     1
 44
1.0
  0
XRECORD
  5
A24
102
{ACAD_REACTORS
330
921
102
}
330
921
100
AcDbXrecord
280
     1
102
ACAD_MATT_HEIGHT
140
0.9000000357627866
  0
XRECORD
  5
A27
102
{ACAD_REACTORS
330
924
102
}
330
924
100
AcDbXrecord
280
     1
 70
     2
 70
     0
 70
     0
 40
1.0
  2
Artikelnummer_neu
  1
Embedded Object
 10
18.64999999999995
 20
28.2500000165019
 30
0.0
 40
1.749999970197676
 41
25.49999999999999
 46
0.0
 71
     5
 72
     5
  1
101551
  7
Textstil59
 73
     1
 44
1.0
  0
XRECORD
  5
A26
102
{ACAD_REACTORS
330
924
102
}
330
924
100
AcDbXrecord
280
     1
102
ACAD_MATT_HEIGHT
140
1.749999970197676
  0
XRECORD
  5
A29
102
{ACAD_REACTORS
330
927
102
}
330
927
100
AcDbXrecord
280
     1
 70
     2
 70
     0
 70
     0
 40
1.0
  2
Artikelnummer_alt
  1
Embedded Object
 10
18.64999999999995
 20
26.12500000000001
 30
0.0
 40
1.25
 41
21.99999999999999
 46
0.0
 71
     2
 72
     5
  1
(27.005.087)
  7
Textstil54
 73
     1
 44
1.0
  0
XRECORD
  5
A28
102
{ACAD_REACTORS
330
927
102
}
330
927
100
AcDbXrecord
280
     1
102
ACAD_MATT_HEIGHT
140
1.25
  0
XRECORD
  5
A2B
102
{ACAD_REACTORS
330
92A
102
}
330
92A
100
AcDbXrecord
280
     1
 70
     2
 70
     0
 70
     0
 40
1.0
  2
Material
  1
Embedded Object
 10
91.66162025333539
 20
30.93750000000002
 30
0.0
 40
1.500000059604644
 41
17.37246951263555
 46
0.0
 71
     5
 72
     5
  1
Messing vern.
  7
Textstil56
 73
     1
 44
1.0
  0
XRECORD
  5
A2A
102
{ACAD_REACTORS
330
92A
102
}
330
92A
100
AcDbXrecord
280
     1
102
ACAD_MATT_HEIGHT
140
1.500000059604644
  0
XRECORD
  5
A2D
102
{ACAD_REACTORS
330
92D
102
}
330
92D
100
AcDbXrecord
280
     1
 70
     2
 70
     0
 70
     0
 40
1.0
  2
Maßstab
  1
Embedded Object
 10
69.39238501540322
 20
30.93750000000002
 30
0.0
 40
1.500000059604644
 41
13.64806460287294
 46
0.0
 71
     5
 72
     5
  1
2:1
  7
Textstil56
 73
     1
 44
1.0
  0
XRECORD
  5
A2C
102
{ACAD_REACTORS
330
92D
102
}
330
92D
100
AcDbXrecord
280
     1
102
ACAD_MATT_HEIGHT
140
1.500000059604644
  0
XRECORD
  5
A2F
102
{ACAD_REACTORS
330
930
102
}
330
930
100
AcDbXrecord
280
     1
 70
     2
 70
     0
 70
     0
 40
1.0
  2
Gezeichnet_Datum
  1
Embedded Object
 10
41.39999999999992
 20
20.93750000000003
 30
0.0
 40
0.9000000357627866
 41
5.223562803724952
 46
0.0
 71
     5
 72
     5
  1
21.11.13
  7
Textstil57
 73
     1
 44
1.0
  0
XRECORD
  5
A2E
102
{ACAD_REACTORS
330
930
102
}
330
930
100
AcDbXrecord
280
     1
102
ACAD_MATT_HEIGHT
140
0.9000000357627866
  0
XRECORD
  5
A31
102
{ACAD_REACTORS
330
933
102
}
330
933
100
AcDbXrecord
280
     1
 70
     2
 70
     0
 70
     0
 40
1.0
  2
Gezeichnet_Name
  1
Embedded Object
 10
49.84999999999993
 20
20.93750000000003
 30
0.0
 40
0.9000000357627866
 41
9.049263915990868
 46
0.0
 71
     5
 72
     5
  1
Bader
  7
Textstil57
 73
     1
 44
1.0
  0
XRECORD
  5
A30
102
{ACAD_REACTORS
330
933
102
}
330
933
100
AcDbXrecord
280
     1
102
ACAD_MATT_HEIGHT
140
0.9000000357627866
  0
XRECORD
  5
A33
102
{ACAD_REACTORS
330
936
102
}
330
936
100
AcDbXrecord
280
     1
 70
     2
 70
     0
 70
     0
 40
1.0
  2
Benennung
  1
Embedded Object
 10
73.24999999999987
 20
9.324817012783563
 30
0.0
 40
2.000000029802321
 41
0.0
 46
0.0
 71
     5
 72
     5
  1

  7
Textstil53
 73
     1
 44
1.0
  0
XRECORD
  5
A32
102
{ACAD_REACTORS
330
936
102
}
330
936
100
AcDbXrecord
280
     1
102
ACAD_MATT_HEIGHT
140
2.000000029802321
  0
XRECORD
  5
A35
102
{ACAD_REACTORS
330
939
102
}
330
939
100
AcDbXrecord
280
     1
 70
     2
 70
     0
 70
     0
 40
1.0
  2
Zeichnungsnummer
  1
Embedded Object
 10
69.99444175221552
 20
6.062500000000009
 30
0.0
 40
1.25
 41
29.53516678799335
 46
0.0
 71
     4
 72
     5
  1
AN GEA 25 C
  7
Textstil54
 73
     1
 44
1.0
  0
XRECORD
  5
A34
102
{ACAD_REACTORS
330
939
102
}
330
939
100
AcDbXrecord
280
     1
102
ACAD_MATT_HEIGHT
140
1.25
  0
XRECORD
  5
A37
102
{ACAD_REACTORS
330
93C
102
}
330
93C
100
AcDbXrecord
280
     1
 70
     2
 70
     0
 70
     0
 40
1.0
  2
Ers._für
  1
Embedded Object
 10
46.32300313507665
 20
6.0625
 30
0.0
 40
1.25
 41
15.96837395265247
 46
0.0
 71
     5
 72
     5
  1
AN GEA 25 B
  7
Textstil54
 73
     1
 44
1.0
  0
XRECORD
  5
A36
102
{ACAD_REACTORS
330
93C
102
}
330
93C
100
AcDbXrecord
280
     1
102
ACAD_MATT_HEIGHT
140
1.25
  0
XRECORD
  5
A39
102
{ACAD_REACTORS
330
93F
102
}
330
93F
100
AcDbXrecord
280
     1
 70
     2
 70
     0
 70
     0
 40
1.0
  2
Projekt
  1
Embedded Object
 10
43.34999999999992
 20
9.324817012783556
 30
0.0
 40
2.000000029802321
 41
21.09706411125767
 46
0.0
 71
     5
 72
     5
  1
Anschlussteile
  7
Textstil53
 73
     1
 44
1.0
  0
XRECORD
  5
A38
102
{ACAD_REACTORS
330
93F
102
}
330
93F
100
AcDbXrecord
280
     1
102
ACAD_MATT_HEIGHT
140
2.000000029802321
  0
XRECORD
  5
A3B
102
{ACAD_REACTORS
330
942
102
}
330
942
100
AcDbXrecord
280
     1
 70
     2
 70
     0
 70
     0
 40
1.0
  2
Kontroll_Datum
  1
Embedded Object
 10
41.39999999999997
 20
18.81250000000002
 30
0.0
 40
0.9000000357627866
 41
4.800557171596365
 46
0.0
 71
     5
 72
     5
  1
21.11.13
  7
Textstil57
 73
     1
 44
1.0
  0
XRECORD
  5
A3A
102
{ACAD_REACTORS
330
942
102
}
330
942
100
AcDbXrecord
280
     1
102
ACAD_MATT_HEIGHT
140
0.9000000357627866
  0
XRECORD
  5
A3D
102
{ACAD_REACTORS
330
945
102
}
330
945
100
AcDbXrecord
280
     1
 70
     2
 70
     0
 70
     0
 40
1.0
  2
Kontroll__Name
  1
Embedded Object
 10
49.84999999999993
 20
18.81250000000002
 30
0.0
 40
0.9000000357627866
 41
8.809465336641864
 46
0.0
 71
     5
 72
     5
  1
Hildenbrand
  7
Textstil57
 73
     1
 44
1.0
  0
XRECORD
  5
A3C
102
{ACAD_REACTORS
330
945
102
}
330
945
100
AcDbXrecord
280
     1
102
ACAD_MATT_HEIGHT
140
0.9000000357627866
  0
ACDBDETAILVIEWSTYLE
  5
6C
102
{ACAD_REACTORS
330
6B
102
}
330
6B
100
AcDbModelDocViewStyle
 70
     0
  3
Imperial24
290
     0
100
AcDbDetailViewStyle
 70
     0
 71
     0
 90
        3
 71
     1
340
55
 62
   256
 40
0.24
340
0
 62
   256
 40
0.24
300

 40
0.36
280
     3
 71
     2
340
5D
 90
       25
 62
   256
 71
     3
340
55
 62
   256
 40
0.24
 90
        1
 40
0.75
 90
        1
300
%<\AcVar ViewType \f "%tc1">% %<\AcVar ViewDetailId>%\PVARIA %<\AcVar ViewScale \f "%sn">%
 71
     4
340
5D
 90
       25
 62
   256
340
5D
 90
       25
 62
   256
280
     0
  0
ACDBDETAILVIEWSTYLE
  5
980
102
{ACAD_REACTORS
330
6B
102
}
330
6B
100
AcDbModelDocViewStyle
 70
     0
  3
Metric50
290
     0
100
AcDbDetailViewStyle
 70
     0
 71
     0
 90
        3
 71
     1
340
55
 62
   256
 40
5.0
340
0
 62
   256
 40
5.0
300

 40
0.0
280
     1
 71
     2
340
5D
 90
       25
 62
   256
 71
     3
340
55
 62
   256
 40
5.0
 90
        0
 40
15.0
 90
        1
300
%<\AcVar ViewDetailId>% (%<\AcVar ViewScale \f "%sn">%)
 71
     4
340
5D
 90
       25
 62
   256
340
5D
 90
       25
 62
   256
280
     0
  0
LAYOUT
  5
70
102
{ACAD_REACTORS
330
62
102
}
330
62
100
AcDbPlotSettings
  1

  2

  4

  6

 40
0.0
 41
0.0
 42
0.0
 43
0.0
 44
0.0
 45
0.0
 46
0.0
 47
0.0
 48
0.0
 49
0.0
140
0.0
141
0.0
142
1.0
143
1.0
 70
   688
 72
     0
 73
     0
 74
     5
  7

 75
    16
147
1.0
 76
     0
 77
     2
 78
   300
148
0.0
149
0.0
100
AcDbLayout
  1
Layout1
 70
     1
 71
     1
 10
0.0
 20
0.0
 11
12.0
 21
9.0
 12
0.0
 22
0.0
 32
0.0
 14
0.0
 24
0.0
 34
0.0
 15
0.0
 25
0.0
 35
0.0
146
0.0
 13
0.0
 23
0.0
 33
0.0
 16
1.0
 26
0.0
 36
0.0
 17
0.0
 27
1.0
 37
0.0
 76
     0
330
6D
  0
LAYOUT
  5
78
102
{ACAD_REACTORS
330
62
102
}
330
62
100
AcDbPlotSettings
  1

  2

  4

  6

 40
0.0
 41
0.0
 42
0.0
 43
0.0
 44
0.0
 45
0.0
 46
0.0
 47
0.0
 48
0.0
 49
0.0
140
0.0
141
0.0
142
1.0
143
1.0
 70
   688
 72
     0
 73
     0
 74
     5
  7

 75
    16
147
1.0
 76
     0
 77
     2
 78
   300
148
0.0
149
0.0
100
AcDbLayout
  1
Layout2
 70
     1
 71
     2
 10
0.0
 20
0.0
 11
12.0
 21
9.0
 12
0.0
 22
0.0
 32
0.0
 14
0.0
 24
0.0
 34
0.0
 15
0.0
 25
0.0
 35
0.0
146
0.0
 13
0.0
 23
0.0
 33
0.0
 16
1.0
 26
0.0
 36
0.0
 17
0.0
 27
1.0
 37
0.0
 76
     0
330
75
  0
LAYOUT
  5
74
102
{ACAD_REACTORS
330
62
102
}
330
62
100
AcDbPlotSettings
  1

  2

  4

  6

 40
0.0
 41
0.0
 42
0.0
 43
0.0
 44
0.0
 45
0.0
 46
0.0
 47
0.0
 48
0.0
 49
0.0
140
0.0
141
0.0
142
1.0
143
1.0
 70
  1712
 72
     0
 73
     0
 74
     0
  7

 75
     0
147
1.0
 76
     0
 77
     2
 78
   300
148
0.0
149
0.0
100
AcDbLayout
  1
Model
 70
     1
 71
     0
 10
0.0
 20
0.0
 11
12.0
 21
9.0
 12
0.0
 22
0.0
 32
0.0
 14
0.0
 24
0.0
 34
0.0
 15
0.0
 25
0.0
 35
0.0
146
0.0
 13
0.0
 23
0.0
 33
0.0
 16
1.0
 26
0.0
 36
0.0
 17
0.0
 27
1.0
 37
0.0
 76
     0
330
71
  0
MATERIAL
  5
19
102
{ACAD_XDICTIONARY
360
1A
102
}
102
{ACAD_REACTORS
330
10
102
}
330
10
100
AcDbMaterial
  1
ByBlock
 72
     0
 43
0.0208333333333333
 43
0.0
 43
0.0
 43
0.0
 43
0.0
 43
0.0208333333333333
 43
0.0
 43
0.0
 43
0.0
 43
0.0
 43
1.0
 43
0.0
 43
0.0
 43
0.0
 43
0.0
 43
1.0
 77
     0
 47
0.0208333333333333
 47
0.0
 47
0.0
 47
0.0
 47
0.0
 47
0.0208333333333333
 47
0.0
 47
0.0
 47
0.0
 47
0.0
 47
1.0
 47
0.0
 47
0.0
 47
0.0
 47
0.0
 47
1.0
171
     0
 49
0.0208333333333333
 49
0.0
 49
0.0
 49
0.0
 49
0.0
 49
0.0208333333333333
 49
0.0
 49
0.0
 49
0.0
 49
0.0
 49
1.0
 49
0.0
 49
0.0
 49
0.0
 49
0.0
 49
1.0
175
     0
142
0.0208333333333333
142
0.0
142
0.0
142
0.0
142
0.0
142
0.0208333333333333
142
0.0
142
0.0
142
0.0
142
0.0
142
1.0
142
0.0
142
0.0
142
0.0
142
0.0
142
1.0
179
     0
144
0.0208333333333333
144
0.0
144
0.0
144
0.0
144
0.0
144
0.0208333333333333
144
0.0
144
0.0
144
0.0
144
0.0
144
1.0
144
0.0
144
0.0
144
0.0
144
0.0
144
1.0
147
0.0208333333333333
147
0.0
147
0.0
147
0.0
147
0.0
147
0.0208333333333333
147
0.0
147
0.0
147
0.0
147
0.0
147
1.0
147
0.0
147
0.0
147
0.0
147
0.0
147
1.0
  0
MATERIAL
  5
11
102
{ACAD_XDICTIONARY
360
12
102
}
102
{ACAD_REACTORS
330
10
102
}
330
10
100
AcDbMaterial
  1
ByLayer
 72
     0
 43
0.0208333333333333
 43
0.0
 43
0.0
 43
0.0
 43
0.0
 43
0.0208333333333333
 43
0.0
 43
0.0
 43
0.0
 43
0.0
 43
1.0
 43
0.0
 43
0.0
 43
0.0
 43
0.0
 43
1.0
 77
     0
 47
0.0208333333333333
 47
0.0
 47
0.0
 47
0.0
 47
0.0
 47
0.0208333333333333
 47
0.0
 47
0.0
 47
0.0
 47
0.0
 47
1.0
 47
0.0
 47
0.0
 47
0.0
 47
0.0
 47
1.0
171
     0
 49
0.0208333333333333
 49
0.0
 49
0.0
 49
0.0
 49
0.0
 49
0.0208333333333333
 49
0.0
 49
0.0
 49
0.0
 49
0.0
 49
1.0
 49
0.0
 49
0.0
 49
0.0
 49
0.0
 49
1.0
175
     0
142
0.0208333333333333
142
0.0
142
0.0
142
0.0
142
0.0
142
0.0208333333333333
142
0.0
142
0.0
142
0.0
142
0.0
142
1.0
142
0.0
142
0.0
142
0.0
142
0.0
142
1.0
179
     0
144
0.0208333333333333
144
0.0
144
0.0
144
0.0
144
0.0
144
0.0208333333333333
144
0.0
144
0.0
144
0.0
144
0.0
144
1.0
144
0.0
144
0.0
144
0.0
144
0.0
144
1.0
147
0.0208333333333333
147
0.0
147
0.0
147
0.0
147
0.0
147
0.0208333333333333
147
0.0
147
0.0
147
0.0
147
0.0
147
1.0
147
0.0
147
0.0
147
0.0
147
0.0
147
1.0
  0
MATERIAL
  5
21
102
{ACAD_XDICTIONARY
360
22
102
}
102
{ACAD_REACTORS
330
10
102
}
330
10
100
AcDbMaterial
  1
Global
 72
     0
 43
0.0208333333333333
 43
0.0
 43
0.0
 43
0.0
 43
0.0
 43
0.0208333333333333
 43
0.0
 43
0.0
 43
0.0
 43
0.0
 43
1.0
 43
0.0
 43
0.0
 43
0.0
 43
0.0
 43
1.0
 77
     0
 47
0.0208333333333333
 47
0.0
 47
0.0
 47
0.0
 47
0.0
 47
0.0208333333333333
 47
0.0
 47
0.0
 47
0.0
 47
0.0
 47
1.0
 47
0.0
 47
0.0
 47
0.0
 47
0.0
 47
1.0
171
     0
 49
0.0208333333333333
 49
0.0
 49
0.0
 49
0.0
 49
0.0
 49
0.0208333333333333
 49
0.0
 49
0.0
 49
0.0
 49
0.0
 49
1.0
 49
0.0
 49
0.0
 49
0.0
 49
0.0
 49
1.0
175
     0
142
0.0208333333333333
142
0.0
142
0.0
142
0.0
142
0.0
142
0.0208333333333333
142
0.0
142
0.0
142
0.0
142
0.0
142
1.0
142
0.0
142
0.0
142
0.0
142
0.0
142
1.0
179
     0
144
0.0208333333333333
144
0.0
144
0.0
144
0.0
144
0.0
144
0.0208333333333333
144
0.0
144
0.0
144
0.0
144
0.0
144
1.0
144
0.0
144
0.0
144
0.0
144
0.0
144
1.0
147
0.0208333333333333
147
0.0
147
0.0
147
0.0
147
0.0
147
0.0208333333333333
147
0.0
147
0.0
147
0.0
147
0.0
147
1.0
147
0.0
147
0.0
147
0.0
147
0.0
147
1.0
  0
MLEADERSTYLE
  5
67
102
{ACAD_XDICTIONARY
360
A70
102
}
102
{ACAD_REACTORS
330
66
102
}
330
66
100
AcDbMLeaderStyle
179
     2
170
     2
171
     1
172
     0
 90
        2
 40
0.0
 41
0.0
173
     1
 91
-1056964608
340
5B
 92
       -2
290
     1
 42
0.09
291
     1
 43
0.36
  3
Standard
 44
0.18
300

342
55
174
     1
178
     6
175
     1
176
     0
 93
-1056964608
 45
0.18
292
     0
297
     0
 46
0.18
 94
-1056964608
 47
1.0
 49
1.0
140
1.0
293
     1
141
0.0
294
     1
177
     0
142
1.0
295
     0
296
     0
143
0.125
271
     0
272
     9
273
     9
  0
MLINESTYLE
  5
60
102
{ACAD_REACTORS
330
5F
102
}
330
5F
100
AcDbMlineStyle
  2
STANDARD
 70
     0
  3

 62
   256
 51
90.0
 52
90.0
 71
     2
 49
0.5
 62
   256
  6
BYLAYER
 49
-0.5
 62
   256
  6
BYLAYER
  0
ACDBPLACEHOLDER
  5
F
102
{ACAD_REACTORS
330
E
102
}
330
E
  0
SCALE
  5
43
102
{ACAD_REACTORS
330
42
102
}
330
42
100
AcDbScale
 70
     0
300
1:1
140
1.0
141
1.0
290
     1
  0
SCALE
  5
44
102
{ACAD_REACTORS
330
42
102
}
330
42
100
AcDbScale
 70
     0
300
1/128" = 1'-0"
140
0.0078125
141
12.0
290
     0
  0
SCALE
  5
45
102
{ACAD_REACTORS
330
42
102
}
330
42
100
AcDbScale
 70
     0
300
1/64" = 1'-0"
140
0.015625
141
12.0
290
     0
  0
SCALE
  5
46
102
{ACAD_REACTORS
330
42
102
}
330
42
100
AcDbScale
 70
     0
300
1/32" = 1'-0"
140
0.03125
141
12.0
290
     0
  0
SCALE
  5
47
102
{ACAD_REACTORS
330
42
102
}
330
42
100
AcDbScale
 70
     0
300
1/16" = 1'-0"
140
0.0625
141
12.0
290
     0
  0
SCALE
  5
48
102
{ACAD_REACTORS
330
42
102
}
330
42
100
AcDbScale
 70
     0
300
3/32" = 1'-0"
140
0.09375
141
12.0
290
     0
  0
SCALE
  5
49
102
{ACAD_REACTORS
330
42
102
}
330
42
100
AcDbScale
 70
     0
300
1/8" = 1'-0"
140
0.125
141
12.0
290
     0
  0
SCALE
  5
4A
102
{ACAD_REACTORS
330
42
102
}
330
42
100
AcDbScale
 70
     0
300
3/16" = 1'-0"
140
0.1875
141
12.0
290
     0
  0
SCALE
  5
4B
102
{ACAD_REACTORS
330
42
102
}
330
42
100
AcDbScale
 70
     0
300
1/4" = 1'-0"
140
0.25
141
12.0
290
     0
  0
SCALE
  5
4C
102
{ACAD_REACTORS
330
42
102
}
330
42
100
AcDbScale
 70
     0
300
3/8" = 1'-0"
140
0.375
141
12.0
290
     0
  0
SCALE
  5
4D
102
{ACAD_REACTORS
330
42
102
}
330
42
100
AcDbScale
 70
     0
300
1/2" = 1'-0"
140
0.5
141
12.0
290
     0
  0
SCALE
  5
4E
102
{ACAD_REACTORS
330
42
102
}
330
42
100
AcDbScale
 70
     0
300
3/4" = 1'-0"
140
0.75
141
12.0
290
     0
  0
SCALE
  5
4F
102
{ACAD_REACTORS
330
42
102
}
330
42
100
AcDbScale
 70
     0
300
1" = 1'-0"
140
1.0
141
12.0
290
     0
  0
SCALE
  5
50
102
{ACAD_REACTORS
330
42
102
}
330
42
100
AcDbScale
 70
     0
300
1-1/2" = 1'-0"
140
1.5
141
12.0
290
     0
  0
SCALE
  5
51
102
{ACAD_REACTORS
330
42
102
}
330
42
100
AcDbScale
 70
     0
300
3" = 1'-0"
140
3.0
141
12.0
290
     0
  0
SCALE
  5
52
102
{ACAD_REACTORS
330
42
102
}
330
42
100
AcDbScale
 70
     0
300
6" = 1'-0"
140
6.0
141
12.0
290
     0
  0
SCALE
  5
53
102
{ACAD_REACTORS
330
42
102
}
330
42
100
AcDbScale
 70
     0
300
1'-0" = 1'-0"
140
12.0
141
12.0
290
     0
  0
ACDBSECTIONVIEWSTYLE
  5
6A
102
{ACAD_REACTORS
330
68
102
}
330
68
100
AcDbModelDocViewStyle
 70
     0
  3
Imperial24
290
     0
100
AcDbSectionViewStyle
 70
     0
 71
     0
 90
       78
 71
     1
340
55
 62
   256
 40
0.24
340
0
340
0
 62
   256
 40
0.24
300
I, O, Q, S, X, Z
 40
0.48
 90
        3
 40
0.18
 90
        1
 71
     2
340
69
 90
       25
 62
   256
340
5D
 90
       50
 62
   256
 40
0.24
 40
0.0
 40
0.24
 71
     3
340
55
 62
   256
 40
0.24
 90
        1
 40
0.75
 90
        1
300
%<\AcVar ViewType \f "%tc1">% %<\AcVar ViewSectionStartId>%-%<\AcVar ViewSectionEndId>%\PVARIA %<\AcVar ViewScale \f "%sn">%
 71
     4
 62
   256
 62
   257
300
ANSI31
 40
1.0
 90
        0
290
     0
290
     0
 90
        6
 40
0.0
 40
1.570796326794896
 40
0.2617993877991494
 40
1.308996938995747
 40
-0.2617993877991494
 40
1.832595714594045
  0
ACDBSECTIONVIEWSTYLE
  5
97F
102
{ACAD_REACTORS
330
68
102
}
330
68
100
AcDbModelDocViewStyle
 70
     0
  3
Metric50
290
     0
100
AcDbSectionViewStyle
 70
     0
 71
     0
 90
      102
 71
     1
340
55
 62
   256
 40
5.0
340
0
340
0
 62
   256
 40
5.0
300
I, O, Q, S, X, Z
 40
10.0
 90
        0
 40
2.5
 90
        0
 71
     2
340
5D
 90
       25
 62
   256
340
5D
 90
       50
 62
   256
 40
5.0
 40
2.5
 40
5.0
 71
     3
340
55
 62
   256
 40
5.0
 90
        0
 40
15.0
 90
        1
300
%<\AcVar ViewSectionStartId>%-%<\AcVar ViewSectionEndId>% (%<\AcVar ViewScale \f "%sn">%)
 71
     4
 62
   256
 62
   257
300
ANSI31
 40
1.0
 90
        0
290
     0
290
     0
 90
        6
 40
0.0
 40
1.570796326794896
 40
0.2617993877991494
 40
1.308996938995747
 40
-0.2617993877991494
 40
1.832595714594046
  0
TABLESTYLE
  5
65
102
{ACAD_XDICTIONARY
360
830
102
}
102
{ACAD_REACTORS
330
64
102
}
330
64
100
AcDbTableStyle
280
     0
  3
Standard
 70
     0
 71
     0
 40
0.06
 41
0.06
280
     0
281
     0
  7
Standard
140
0.18
170
     2
 62
     0
 63
     7
283
     0
 90
      512
 91
        0
  1

274
    -2
284
     1
 64
     0
275
    -2
285
     1
 65
     0
276
    -2
286
     1
 66
     0
277
    -2
287
     1
 67
     0
278
    -2
288
     1
 68
     0
279
    -2
289
     1
 69
     0
  7
Standard
140
0.25
170
     5
 62
     0
 63
     7
283
     0
 90
      512
 91
        0
  1

274
    -2
284
     1
 64
     0
275
    -2
285
     1
 65
     0
276
    -2
286
     1
 66
     0
277
    -2
287
     1
 67
     0
278
    -2
288
     1
 68
     0
279
    -2
289
     1
 69
     0
  7
Standard
140
0.18
170
     5
 62
     0
 63
     7
283
     0
 90
      512
 91
        0
  1

274
    -2
284
     1
 64
     0
275
    -2
285
     1
 65
     0
276
    -2
286
     1
 66
     0
277
    -2
287
     1
 67
     0
278
    -2
288
     1
 68
     0
279
    -2
289
     1
 69
     0
  0
VISUALSTYLE
  5
2F
102
{ACAD_XDICTIONARY
360
A4A
102
}
102
{ACAD_REACTORS
330
29
102
}
330
29
100
AcDbVisualStyle
  2
2dWireframe
 70
     4
177
     2
291
     0
 71
     0
176
     1
 72
     2
176
     1
 73
     0
176
     1
 90
        0
176
     1
 40
0.6
176
     1
 41
30.0
176
     1
 63
     7
421
 16777215
176
     1
 74
     1
176
     1
 91
        4
176
     1
 64
     7
176
     1
 65
   257
176
     1
 75
     1
176
     1
175
     1
176
     1
 42
1.0
176
     1
 92
        0
176
     1
 66
   257
176
     1
 43
1.0
176
     1
 76
     1
176
     1
 77
     6
176
     1
 78
     2
176
     1
 67
     7
176
     1
 79
     5
176
     1
170
     0
176
     1
171
     0
176
     1
290
     0
176
     1
 93
        1
176
     1
 44
0.0
176
     1
173
     0
176
     1
1001
ACAD
1000
AcDbSavedByObjectVersion
1070
     0
  0
VISUALSTYLE
  5
2E
102
{ACAD_XDICTIONARY
360
A48
102
}
102
{ACAD_REACTORS
330
29
102
}
330
29
100
AcDbVisualStyle
  2
Basic
 70
     7
177
     2
291
     1
 71
     1
176
     1
 72
     0
176
     1
 73
     1
176
     1
 90
        0
176
     1
 40
0.6
176
     1
 41
30.0
176
     1
 63
     7
421
 16777215
176
     1
 74
     0
176
     1
 91
        4
176
     1
 64
     7
176
     1
 65
   257
176
     1
 75
     1
176
     1
175
     1
176
     1
 42
1.0
176
     1
 92
        8
176
     1
 66
     7
176
     1
 43
1.0
176
     1
 76
     1
176
     1
 77
     6
176
     1
 78
     2
176
     1
 67
     7
176
     1
 79
     5
176
     1
170
     0
176
     1
171
     0
176
     1
290
     0
176
     1
 93
        1
176
     1
 44
0.0
176
     1
173
     0
176
     1
1001
ACAD
1000
AcDbSavedByObjectVersion
1070
     0
  0
VISUALSTYLE
  5
35
102
{ACAD_XDICTIONARY
360
A56
102
}
102
{ACAD_REACTORS
330
29
102
}
330
29
100
AcDbVisualStyle
  2
Brighten
 70
    12
177
     2
291
     1
 71
     2
176
     1
 72
     2
176
     1
 73
     0
176
     1
 90
        0
176
     1
 40
0.6
176
     1
 41
30.0
176
     1
 63
     7
421
 16777215
176
     1
 74
     1
176
     1
 91
        4
176
     1
 64
     7
176
     1
 65
   257
176
     1
 75
     1
176
     1
175
     1
176
     1
 42
1.0
176
     1
 92
        8
176
     1
 66
     7
176
     1
 43
1.0
176
     1
 76
     1
176
     1
 77
     6
176
     1
 78
     2
176
     1
 67
     7
176
     1
 79
     5
176
     1
170
     0
176
     1
171
     0
176
     1
290
     0
176
     1
 93
        1
176
     1
 44
50.0
176
     1
173
     0
176
     1
1001
ACAD
1000
AcDbSavedByObjectVersion
1070
     0
  0
VISUALSTYLE
  5
39
102
{ACAD_XDICTIONARY
360
A5E
102
}
102
{ACAD_REACTORS
330
29
102
}
330
29
100
AcDbVisualStyle
  2
ColorChange
 70
    16
177
     2
291
     1
 71
     2
176
     1
 72
     2
176
     1
 73
     3
176
     1
 90
        0
176
     1
 40
0.6
176
     1
 41
30.0
176
     1
 63
     8
421
  8421504
176
     1
 74
     1
176
     1
 91
        4
176
     1
 64
     7
176
     1
 65
   257
176
     1
 75
     1
176
     1
175
     1
176
     1
 42
1.0
176
     1
 92
        8
176
     1
 66
     8
424
  8421504
176
     1
 43
1.0
176
     1
 76
     1
176
     1
 77
     6
176
     1
 78
     2
176
     1
 67
     7
176
     1
 79
     5
176
     1
170
     0
176
     1
171
     0
176
     1
290
     0
176
     1
 93
        1
176
     1
 44
0.0
176
     1
173
     0
176
     1
1001
ACAD
1000
AcDbSavedByObjectVersion
1070
     0
  0
VISUALSTYLE
  5
32
102
{ACAD_XDICTIONARY
360
A50
102
}
102
{ACAD_REACTORS
330
29
102
}
330
29
100
AcDbVisualStyle
  2
Conceptual
 70
     9
177
     2
291
     0
 71
     3
176
     1
 72
     2
176
     1
 73
     0
176
     1
 90
        0
176
     1
 40
0.6
176
     1
 41
30.0
176
     1
 63
     7
421
 16777215
176
     1
 74
     2
176
     1
 91
        2
176
     1
 64
     7
176
     1
 65
   257
176
     1
 75
     1
176
     1
175
     1
176
     1
 42
179.0
176
     1
 92
        8
176
     1
 66
     7
176
     1
 43
1.0
176
     1
 76
     1
176
     1
 77
     6
176
     1
 78
     2
176
     1
 67
     7
176
     1
 79
     3
176
     1
170
     0
176
     1
171
     0
176
     1
290
     0
176
     1
 93
        1
176
     1
 44
0.0
176
     1
173
     0
176
     1
1001
ACAD
1000
AcDbSavedByObjectVersion
1070
     0
  0
VISUALSTYLE
  5
34
102
{ACAD_XDICTIONARY
360
A54
102
}
102
{ACAD_REACTORS
330
29
102
}
330
29
100
AcDbVisualStyle
  2
Dim
 70
    11
177
     2
291
     1
 71
     2
176
     1
 72
     2
176
     1
 73
     0
176
     1
 90
        0
176
     1
 40
0.6
176
     1
 41
30.0
176
     1
 63
     7
421
 16777215
176
     1
 74
     1
176
     1
 91
        4
176
     1
 64
     7
176
     1
 65
   257
176
     1
 75
     1
176
     1
175
     1
176
     1
 42
1.0
176
     1
 92
        8
176
     1
 66
     7
176
     1
 43
1.0
176
     1
 76
     1
176
     1
 77
     6
176
     1
 78
     2
176
     1
 67
     7
176
     1
 79
     5
176
     1
170
     0
176
     1
171
     0
176
     1
290
     0
176
     1
 93
        1
176
     1
 44
-50.0
176
     1
173
     0
176
     1
1001
ACAD
1000
AcDbSavedByObjectVersion
1070
     0
  0
VISUALSTYLE
  5
41
102
{ACAD_XDICTIONARY
360
A6E
102
}
102
{ACAD_REACTORS
330
29
102
}
330
29
100
AcDbVisualStyle
  2
EdgeColorOff
 70
    22
177
     2
291
     1
 71
     2
176
     0
 72
     2
176
     0
 73
     0
176
     0
 90
        0
176
     0
 40
0.6
176
     0
 41
30.0
176
     0
 63
     7
421
 16777215
176
     0
 74
     1
176
     0
 91
        4
176
     0
 64
     7
176
     0
 65
   257
176
     0
 75
     1
176
     0
175
     1
176
     0
 42
1.0
176
     0
 92
        8
176
     2
 66
     7
176
     0
 43
1.0
176
     0
 76
     1
176
     0
 77
     6
176
     0
 78
     2
176
     0
 67
     7
176
     0
 79
     5
176
     0
170
     0
176
     0
171
     0
176
     0
290
     0
176
     0
 93
        1
176
     0
 44
0.0
176
     0
173
     0
176
     0
1001
ACAD
1000
AcDbSavedByObjectVersion
1070
     0
  0
VISUALSTYLE
  5
38
102
{ACAD_XDICTIONARY
360
A5C
102
}
102
{ACAD_REACTORS
330
29
102
}
330
29
100
AcDbVisualStyle
  2
Facepattern
 70
    15
177
     2
291
     1
 71
     2
176
     1
 72
     2
176
     1
 73
     0
176
     1
 90
        0
176
     1
 40
0.6
176
     1
 41
30.0
176
     1
 63
     7
421
 16777215
176
     1
 74
     1
176
     1
 91
        4
176
     1
 64
     7
176
     1
 65
   257
176
     1
 75
     1
176
     1
175
     1
176
     1
 42
1.0
176
     1
 92
        8
176
     1
 66
     7
176
     1
 43
1.0
176
     1
 76
     1
176
     1
 77
     6
176
     1
 78
     2
176
     1
 67
     7
176
     1
 79
     5
176
     1
170
     0
176
     1
171
     0
176
     1
290
     0
176
     1
 93
        1
176
     1
 44
0.0
176
     1
173
     0
176
     1
1001
ACAD
1000
AcDbSavedByObjectVersion
1070
     0
  0
VISUALSTYLE
  5
2A
102
{ACAD_XDICTIONARY
360
A40
102
}
102
{ACAD_REACTORS
330
29
102
}
330
29
100
AcDbVisualStyle
  2
Flat
 70
     0
177
     2
291
     1
 71
     2
176
     1
 72
     1
176
     1
 73
     1
176
     1
 90
        2
176
     1
 40
0.6
176
     1
 41
30.0
176
     1
 63
     7
421
 16777215
176
     1
 74
     0
176
     1
 91
        0
176
     1
 64
     7
176
     1
 65
   257
176
     1
 75
     1
176
     1
175
     1
176
     1
 42
1.0
176
     1
 92
        8
176
     1
 66
     7
176
     1
 43
1.0
176
     1
 76
     1
176
     1
 77
     6
176
     1
 78
     2
176
     1
 67
     7
176
     1
 79
     5
176
     1
170
     0
176
     1
171
     0
176
     1
290
     0
176
     1
 93
       13
176
     1
 44
0.0
176
     1
173
     0
176
     1
1001
ACAD
1000
AcDbSavedByObjectVersion
1070
     0
  0
VISUALSTYLE
  5
2B
102
{ACAD_XDICTIONARY
360
A42
102
}
102
{ACAD_REACTORS
330
29
102
}
330
29
100
AcDbVisualStyle
  2
FlatWithEdges
 70
     1
177
     2
291
     1
 71
     2
176
     1
 72
     1
176
     1
 73
     1
176
     1
 90
        2
176
     1
 40
0.6
176
     1
 41
30.0
176
     1
 63
     7
421
 16777215
176
     1
 74
     1
176
     1
 91
        0
176
     1
 64
     7
176
     1
 65
   257
176
     1
 75
     1
176
     1
175
     1
176
     1
 42
1.0
176
     1
 92
        0
176
     1
 66
   257
176
     1
 43
1.0
176
     1
 76
     1
176
     1
 77
     6
176
     1
 78
     2
176
     1
 67
     7
176
     1
 79
     5
176
     1
170
     0
176
     1
171
     0
176
     1
290
     0
176
     1
 93
       13
176
     1
 44
0.0
176
     1
173
     0
176
     1
1001
ACAD
1000
AcDbSavedByObjectVersion
1070
     0
  0
VISUALSTYLE
  5
2C
102
{ACAD_XDICTIONARY
360
A44
102
}
102
{ACAD_REACTORS
330
29
102
}
330
29
100
AcDbVisualStyle
  2
Gouraud
 70
     2
177
     2
291
     1
 71
     2
176
     1
 72
     2
176
     1
 73
     1
176
     1
 90
        2
176
     1
 40
0.6
176
     1
 41
30.0
176
     1
 63
     7
421
 16777215
176
     1
 74
     0
176
     1
 91
        0
176
     1
 64
     7
176
     1
 65
   257
176
     1
 75
     1
176
     1
175
     1
176
     1
 42
1.0
176
     1
 92
        0
176
     1
 66
     7
176
     1
 43
1.0
176
     1
 76
     1
176
     1
 77
     6
176
     1
 78
     2
176
     1
 67
     7
176
     1
 79
     5
176
     1
170
     0
176
     1
171
     0
176
     1
290
     0
176
     1
 93
       13
176
     1
 44
0.0
176
     1
173
     0
176
     1
1001
ACAD
1000
AcDbSavedByObjectVersion
1070
     0
  0
VISUALSTYLE
  5
2D
102
{ACAD_XDICTIONARY
360
A46
102
}
102
{ACAD_REACTORS
330
29
102
}
330
29
100
AcDbVisualStyle
  2
GouraudWithEdges
 70
     3
177
     2
291
     1
 71
     2
176
     1
 72
     2
176
     1
 73
     1
176
     1
 90
        2
176
     1
 40
0.6
176
     1
 41
30.0
176
     1
 63
     7
421
 16777215
176
     1
 74
     1
176
     1
 91
        0
176
     1
 64
     7
176
     1
 65
   257
176
     1
 75
     1
176
     1
175
     1
176
     1
 42
1.0
176
     1
 92
        0
176
     1
 66
   257
176
     1
 43
1.0
176
     1
 76
     1
176
     1
 77
     6
176
     1
 78
     2
176
     1
 67
     7
176
     1
 79
     5
176
     1
170
     0
176
     1
171
     0
176
     1
290
     0
176
     1
 93
       13
176
     1
 44
0.0
176
     1
173
     0
176
     1
1001
ACAD
1000
AcDbSavedByObjectVersion
1070
     0
  0
VISUALSTYLE
  5
31
102
{ACAD_XDICTIONARY
360
A4E
102
}
102
{ACAD_REACTORS
330
29
102
}
330
29
100
AcDbVisualStyle
  2
Hidden
 70
     6
177
     2
291
     0
 71
     1
176
     1
 72
     2
176
     1
 73
     2
176
     1
 90
        0
176
     1
 40
0.6
176
     1
 41
30.0
176
     1
 63
     7
421
 16777215
176
     1
 74
     2
176
     1
 91
        2
176
     1
 64
     7
176
     1
 65
   257
176
     1
 75
     2
176
     1
175
     1
176
     1
 42
40.0
176
     1
 92
        0
176
     1
 66
   257
176
     1
 43
1.0
176
     1
 76
     1
176
     1
 77
     6
176
     1
 78
     2
176
     1
 67
     7
176
     1
 79
     3
176
     1
170
     0
176
     1
171
     0
176
     1
290
     0
176
     1
 93
        1
176
     1
 44
0.0
176
     1
173
     0
176
     1
1001
ACAD
1000
AcDbSavedByObjectVersion
1070
     0
  0
VISUALSTYLE
  5
3F
102
{ACAD_XDICTIONARY
360
A6A
102
}
102
{ACAD_REACTORS
330
29
102
}
330
29
100
AcDbVisualStyle
  2
JitterOff
 70
    20
177
     2
291
     1
 71
     2
176
     0
 72
     2
176
     0
 73
     0
176
     0
 90
        0
176
     0
 40
0.6
176
     0
 41
30.0
176
     0
 63
     7
421
 16777215
176
     0
 74
     1
176
     0
 91
        4
176
     0
 64
     7
176
     0
 65
   257
176
     0
 75
     1
176
     0
175
     1
176
     0
 42
1.0
176
     0
 92
       10
176
     2
 66
     7
176
     0
 43
1.0
176
     0
 76
     1
176
     0
 77
     6
176
     0
 78
     2
176
     0
 67
     7
176
     0
 79
     5
176
     0
170
     0
176
     0
171
     0
176
     0
290
     0
176
     0
 93
        1
176
     0
 44
0.0
176
     0
173
     0
176
     0
1001
ACAD
1000
AcDbSavedByObjectVersion
1070
     0
  0
VISUALSTYLE
  5
37
102
{ACAD_XDICTIONARY
360
A5A
102
}
102
{ACAD_REACTORS
330
29
102
}
330
29
100
AcDbVisualStyle
  2
Linepattern
 70
    14
177
     2
291
     1
 71
     2
176
     1
 72
     2
176
     1
 73
     0
176
     1
 90
        0
176
     1
 40
0.6
176
     1
 41
30.0
176
     1
 63
     7
421
 16777215
176
     1
 74
     1
176
     1
 91
        4
176
     1
 64
     7
176
     1
 65
   257
176
     1
 75
     7
176
     1
175
     7
176
     1
 42
1.0
176
     1
 92
        8
176
     1
 66
     7
176
     1
 43
1.0
176
     1
 76
     1
176
     1
 77
     6
176
     1
 78
     2
176
     1
 67
     7
176
     1
 79
     5
176
     1
170
     0
176
     1
171
     0
176
     1
290
     0
176
     1
 93
        1
176
     1
 44
0.0
176
     1
173
     0
176
     1
1001
ACAD
1000
AcDbSavedByObjectVersion
1070
     0
  0
VISUALSTYLE
  5
40
102
{ACAD_XDICTIONARY
360
A6C
102
}
102
{ACAD_REACTORS
330
29
102
}
330
29
100
AcDbVisualStyle
  2
OverhangOff
 70
    21
177
     2
291
     1
 71
     2
176
     0
 72
     2
176
     0
 73
     0
176
     0
 90
        0
176
     0
 40
0.6
176
     0
 41
30.0
176
     0
 63
     7
421
 16777215
176
     0
 74
     1
176
     0
 91
        4
176
     0
 64
     7
176
     0
 65
   257
176
     0
 75
     1
176
     0
175
     1
176
     0
 42
1.0
176
     0
 92
        9
176
     2
 66
     7
176
     0
 43
1.0
176
     0
 76
     1
176
     0
 77
     6
176
     0
 78
     2
176
     0
 67
     7
176
     0
 79
     5
176
     0
170
     0
176
     0
171
     0
176
     0
290
     0
176
     0
 93
        1
176
     0
 44
0.0
176
     0
173
     0
176
     0
1001
ACAD
1000
AcDbSavedByObjectVersion
1070
     0
  0
VISUALSTYLE
  5
33
102
{ACAD_XDICTIONARY
360
A52
102
}
102
{ACAD_REACTORS
330
29
102
}
330
29
100
AcDbVisualStyle
  2
Realistic
 70
     8
177
     2
291
     0
 71
     2
176
     1
 72
     3
176
     1
 73
     0
176
     1
 90
        2
176
     1
 40
0.6
176
     1
 41
30.0
176
     1
 63
     7
421
 16777215
176
     1
 74
     0
176
     1
 91
        0
176
     1
 64
     7
176
     1
 65
   257
176
     1
 75
     1
176
     1
175
     1
176
     1
 42
1.0
176
     1
 92
        8
176
     1
 66
   257
176
     1
 43
1.0
176
     1
 76
     1
176
     1
 77
     6
176
     1
 78
     2
176
     1
 67
     7
176
     1
 79
     3
176
     1
170
     0
176
     1
171
     0
176
     1
290
     0
176
     1
 93
       13
176
     1
 44
0.0
176
     1
173
     0
176
     1
1001
ACAD
1000
AcDbSavedByObjectVersion
1070
     0
  0
VISUALSTYLE
  5
3E
102
{ACAD_XDICTIONARY
360
A68
102
}
102
{ACAD_REACTORS
330
29
102
}
330
29
100
AcDbVisualStyle
  2
Shaded
 70
    27
177
     2
291
     0
 71
     2
176
     1
 72
     2
176
     1
 73
     1
176
     1
 90
        2
176
     1
 40
0.6
176
     1
 41
30.0
176
     1
 63
     7
421
 16777215
176
     1
 74
     0
176
     1
 91
        4
176
     1
 64
     7
176
     1
 65
   257
176
     1
 75
     1
176
     1
175
     1
176
     1
 42
1.0
176
     1
 92
        8
176
     1
 66
   257
176
     1
 43
1.0
176
     1
 76
     1
176
     1
 77
     6
176
     1
 78
     2
176
     1
 67
     8
425
  7895160
176
     1
 79
     3
176
     1
170
     0
176
     1
171
     0
176
     1
290
     0
176
     1
 93
        5
176
     1
 44
0.0
176
     1
173
     0
176
     1
1001
ACAD
1000
AcDbSavedByObjectVersion
1070
     0
  0
VISUALSTYLE
  5
3D
102
{ACAD_XDICTIONARY
360
A66
102
}
102
{ACAD_REACTORS
330
29
102
}
330
29
100
AcDbVisualStyle
  2
Shaded with edges
 70
    26
177
     2
291
     0
 71
     2
176
     1
 72
     2
176
     1
 73
     1
176
     1
 90
        2
176
     1
 40
0.6
176
     1
 41
30.0
176
     1
 63
     7
421
 16777215
176
     1
 74
     1
176
     1
 91
       10
176
     1
 64
     7
176
     1
 65
   257
176
     1
 75
     2
176
     1
175
     1
176
     1
 42
1.0
176
     1
 92
        8
176
     1
 66
   257
176
     1
 43
1.0
176
     1
 76
     1
176
     1
 77
     6
176
     1
 78
     2
176
     1
 67
     7
176
     1
 79
     3
176
     1
170
     0
176
     1
171
     0
176
     1
290
     0
176
     1
 93
        5
176
     1
 44
0.0
176
     1
173
     0
176
     1
1001
ACAD
1000
AcDbSavedByObjectVersion
1070
     0
  0
VISUALSTYLE
  5
3A
102
{ACAD_XDICTIONARY
360
A60
102
}
102
{ACAD_REACTORS
330
29
102
}
330
29
100
AcDbVisualStyle
  2
Shades of Gray
 70
    23
177
     2
291
     0
 71
     2
176
     1
 72
     2
176
     1
 73
     3
176
     1
 90
        0
176
     1
 40
0.6
176
     1
 41
30.0
176
     1
 63
     7
421
 16777215
176
     1
 74
     2
176
     1
 91
        2
176
     1
 64
     7
176
     1
 65
     7
176
     1
 75
     1
176
     1
175
     1
176
     1
 42
40.0
176
     1
 92
        8
176
     1
 66
     7
176
     1
 43
1.0
176
     1
 76
     1
176
     1
 77
     6
176
     1
 78
     2
176
     1
 67
     7
176
     1
 79
     3
176
     1
170
     0
176
     1
171
     0
176
     1
290
     0
176
     1
 93
        1
176
     1
 44
0.0
176
     1
173
     0
176
     1
1001
ACAD
1000
AcDbSavedByObjectVersion
1070
     0
  0
VISUALSTYLE
  5
3B
102
{ACAD_XDICTIONARY
360
A62
102
}
102
{ACAD_REACTORS
330
29
102
}
330
29
100
AcDbVisualStyle
  2
Sketchy
 70
    24
177
     2
291
     0
 71
     1
176
     1
 72
     2
176
     1
 73
     2
176
     1
 90
        0
176
     1
 40
0.6
176
     1
 41
30.0
176
     1
 63
     7
421
 16777215
176
     1
 74
     2
176
     1
 91
        2
176
     1
 64
     7
176
     1
 65
     7
176
     1
 75
     1
176
     1
175
     1
176
     1
 42
40.0
176
     1
 92
       11
176
     1
 66
     7
176
     1
 43
1.0
176
     1
 76
     1
176
     1
 77
     6
176
     1
 78
     2
176
     1
 67
     7
176
     1
 79
     6
176
     1
170
     0
176
     1
171
     0
176
     1
290
     0
176
     1
 93
        1
176
     1
 44
0.0
176
     1
173
     0
176
     1
1001
ACAD
1000
AcDbSavedByObjectVersion
1070
     0
  0
VISUALSTYLE
  5
36
102
{ACAD_XDICTIONARY
360
A58
102
}
102
{ACAD_REACTORS
330
29
102
}
330
29
100
AcDbVisualStyle
  2
Thicken
 70
    13
177
     2
291
     1
 71
     2
176
     1
 72
     2
176
     1
 73
     0
176
     1
 90
        0
176
     1
 40
0.6
176
     1
 41
30.0
176
     1
 63
     7
421
 16777215
176
     1
 74
     1
176
     1
 91
        4
176
     1
 64
     7
176
     1
 65
   257
176
     1
 75
     1
176
     1
175
     1
176
     1
 42
1.0
176
     1
 92
       12
176
     1
 66
     7
176
     1
 43
1.0
176
     1
 76
     1
176
     1
 77
     6
176
     1
 78
     2
176
     1
 67
     7
176
     1
 79
     5
176
     1
170
     0
176
     1
171
     0
176
     1
290
     0
176
     1
 93
        1
176
     1
 44
0.0
176
     1
173
     0
176
     1
1001
ACAD
1000
AcDbSavedByObjectVersion
1070
     0
  0
VISUALSTYLE
  5
30
102
{ACAD_XDICTIONARY
360
A4C
102
}
102
{ACAD_REACTORS
330
29
102
}
330
29
100
AcDbVisualStyle
  2
Wireframe
 70
     5
177
     2
291
     0
 71
     0
176
     1
 72
     2
176
     1
 73
     0
176
     1
 90
        0
176
     1
 40
0.6
176
     1
 41
30.0
176
     1
 63
     7
421
 16777215
176
     1
 74
     1
176
     1
 91
        4
176
     1
 64
     7
176
     1
 65
   257
176
     1
 75
     1
176
     1
175
     1
176
     1
 42
1.0
176
     1
 92
        0
176
     1
 66
   257
176
     1
 43
1.0
176
     1
 76
     1
176
     1
 77
     6
176
     1
 78
     2
176
     1
 67
     7
176
     1
 79
     3
176
     1
170
     0
176
     1
171
     0
176
     1
290
     0
176
     1
 93
        1
176
     1
 44
0.0
176
     1
173
     0
176
     1
1001
ACAD
1000
AcDbSavedByObjectVersion
1070
     0
  0
VISUALSTYLE
  5
3C
102
{ACAD_XDICTIONARY
360
A64
102
}
102
{ACAD_REACTORS
330
29
102
}
330
29
100
AcDbVisualStyle
  2
X-Ray
 70
    25
177
     2
291
     0
 71
     2
176
     1
 72
     2
176
     1
 73
     1
176
     1
 90
        1
176
     1
 40
0.5
176
     1
 41
30.0
176
     1
 63
     7
421
 16777215
176
     1
 74
     1
176
     1
 91
        0
176
     1
 64
     7
176
     1
 65
   257
176
     1
 75
     1
176
     1
175
     1
176
     1
 42
1.0
176
     1
 92
        8
176
     1
 66
     7
176
     1
 43
1.0
176
     1
 76
     1
176
     1
 77
     6
176
     1
 78
     2
176
     1
 67
     7
176
     1
 79
     3
176
     1
170
     0
176
     1
171
     0
176
     1
290
     0
176
     1
 93
       13
176
     1
 44
0.0
176
     1
173
     0
176
     1
1001
ACAD
1000
AcDbSavedByObjectVersion
1070
     0
  0
DICTIONARYVAR
  5
82F
102
{ACAD_REACTORS
330
82A
102
}
330
82A
100
DictionaryVariables
280
     0
  1
1:1
  0
DICTIONARYVAR
  5
82C
102
{ACAD_REACTORS
330
82A
102
}
330
82A
100
DictionaryVariables
280
     0
  1
STANDARD
  0
DICTIONARYVAR
  5
82B
102
{ACAD_REACTORS
330
82A
102
}
330
82A
100
DictionaryVariables
280
     0
  1
STANDARD
  0
DICTIONARYVAR
  5
82D
102
{ACAD_REACTORS
330
82A
102
}
330
82A
100
DictionaryVariables
280
     0
  1
Imperial24
  0
DICTIONARYVAR
  5
82E
102
{ACAD_REACTORS
330
82A
102
}
330
82A
100
DictionaryVariables
280
     0
  1
Imperial24
  0
DICTIONARY
  5
1A
330
19
100
AcDbDictionary
280
     1
281
     1
  3
BUMPTILE
360
1C
  3
DIFFUSETILE
360
1B
  3
OPACITYTILE
360
1F
  3
REFLECTIONTILE
360
1E
  3
REFRACTIONTILE
360
20
  3
SPECULARTILE
360
1D
  0
DICTIONARY
  5
12
330
11
100
AcDbDictionary
280
     1
281
     1
  3
BUMPTILE
360
14
  3
DIFFUSETILE
360
13
  3
FBXASSET
360
E1
  3
OPACITYTILE
360
17
  3
REFLECTIONTILE
360
16
  3
REFRACTIONTILE
360
18
  3
SPECULARTILE
360
15
  0
DICTIONARY
  5
22
330
21
100
AcDbDictionary
280
     1
281
     1
  3
BUMPTILE
360
24
  3
DIFFUSETILE
360
23
  3
OPACITYTILE
360
27
  3
REFLECTIONTILE
360
26
  3
REFRACTIONTILE
360
28
  3
SPECULARTILE
360
25
  0
DICTIONARY
  5
A70
330
67
100
AcDbDictionary
280
     1
281
     1
  3
ACAD_XREC_ROUNDTRIP
360
A71
  0
DICTIONARY
  5
830
330
65
100
AcDbDictionary
280
     1
281
     1
  3
ACAD_ROUNDTRIP_2008_TABLESTYLE_CELLSTYLEMAP
360
983
  0
DICTIONARY
  5
A4A
330
2F
100
AcDbDictionary
280
     1
281
     1
  3
ACAD_XREC_ROUNDTRIP
360
A4B
  0
DICTIONARY
  5
A48
330
2E
100
AcDbDictionary
280
     1
281
     1
  3
ACAD_XREC_ROUNDTRIP
360
A49
  0
DICTIONARY
  5
A56
330
35
100
AcDbDictionary
280
     1
281
     1
  3
ACAD_XREC_ROUNDTRIP
360
A57
  0
DICTIONARY
  5
A5E
330
39
100
AcDbDictionary
280
     1
281
     1
  3
ACAD_XREC_ROUNDTRIP
360
A5F
  0
DICTIONARY
  5
A50
330
32
100
AcDbDictionary
280
     1
281
     1
  3
ACAD_XREC_ROUNDTRIP
360
A51
  0
DICTIONARY
  5
A54
330
34
100
AcDbDictionary
280
     1
281
     1
  3
ACAD_XREC_ROUNDTRIP
360
A55
  0
DICTIONARY
  5
A6E
330
41
100
AcDbDictionary
280
     1
281
     1
  3
ACAD_XREC_ROUNDTRIP
360
A6F
  0
DICTIONARY
  5
A5C
330
38
100
AcDbDictionary
280
     1
281
     1
  3
ACAD_XREC_ROUNDTRIP
360
A5D
  0
DICTIONARY
  5
A40
330
2A
100
AcDbDictionary
280
     1
281
     1
  3
ACAD_XREC_ROUNDTRIP
360
A41
  0
DICTIONARY
  5
A42
330
2B
100
AcDbDictionary
280
     1
281
     1
  3
ACAD_XREC_ROUNDTRIP
360
A43
  0
DICTIONARY
  5
A44
330
2C
100
AcDbDictionary
280
     1
281
     1
  3
ACAD_XREC_ROUNDTRIP
360
A45
  0
DICTIONARY
  5
A46
330
2D
100
AcDbDictionary
280
     1
281
     1
  3
ACAD_XREC_ROUNDTRIP
360
A47
  0
DICTIONARY
  5
A4E
330
31
100
AcDbDictionary
280
     1
281
     1
  3
ACAD_XREC_ROUNDTRIP
360
A4F
  0
DICTIONARY
  5
A6A
330
3F
100
AcDbDictionary
280
     1
281
     1
  3
ACAD_XREC_ROUNDTRIP
360
A6B
  0
DICTIONARY
  5
A5A
330
37
100
AcDbDictionary
280
     1
281
     1
  3
ACAD_XREC_ROUNDTRIP
360
A5B
  0
DICTIONARY
  5
A6C
330
40
100
AcDbDictionary
280
     1
281
     1
  3
ACAD_XREC_ROUNDTRIP
360
A6D
  0
DICTIONARY
  5
A52
330
33
100
AcDbDictionary
280
     1
281
     1
  3
ACAD_XREC_ROUNDTRIP
360
A53
  0
DICTIONARY
  5
A68
330
3E
100
AcDbDictionary
280
     1
281
     1
  3
ACAD_XREC_ROUNDTRIP
360
A69
  0
DICTIONARY
  5
A66
330
3D
100
AcDbDictionary
280
     1
281
     1
  3
ACAD_XREC_ROUNDTRIP
360
A67
  0
DICTIONARY
  5
A60
330
3A
100
AcDbDictionary
280
     1
281
     1
  3
ACAD_XREC_ROUNDTRIP
360
A61
  0
DICTIONARY
  5
A62
330
3B
100
AcDbDictionary
280
     1
281
     1
  3
ACAD_XREC_ROUNDTRIP
360
A63
  0
DICTIONARY
  5
A58
330
36
100
AcDbDictionary
280
     1
281
     1
  3
ACAD_XREC_ROUNDTRIP
360
A59
  0
DICTIONARY
  5
A4C
330
30
100
AcDbDictionary
280
     1
281
     1
  3
ACAD_XREC_ROUNDTRIP
360
A4D
  0
DICTIONARY
  5
A64
330
3C
100
AcDbDictionary
280
     1
281
     1
  3
ACAD_XREC_ROUNDTRIP
360
A65
  0
XRECORD
  5
1C
102
{ACAD_REACTORS
330
1A
102
}
330
1A
100
AcDbXrecord
280
     1
270
     1
271
     1
  0
XRECORD
  5
1B
102
{ACAD_REACTORS
330
1A
102
}
330
1A
100
AcDbXrecord
280
     1
270
     1
271
     1
  0
XRECORD
  5
1F
102
{ACAD_REACTORS
330
1A
102
}
330
1A
100
AcDbXrecord
280
     1
270
     1
271
     1
  0
XRECORD
  5
1E
102
{ACAD_REACTORS
330
1A
102
}
330
1A
100
AcDbXrecord
280
     1
270
     1
271
     1
  0
XRECORD
  5
20
102
{ACAD_REACTORS
330
1A
102
}
330
1A
100
AcDbXrecord
280
     1
270
     1
271
     1
  0
XRECORD
  5
1D
102
{ACAD_REACTORS
330
1A
102
}
330
1A
100
AcDbXrecord
280
     1
270
     1
271
     1
  0
XRECORD
  5
14
102
{ACAD_REACTORS
330
12
102
}
330
12
100
AcDbXrecord
280
     1
270
     1
271
     1
  0
XRECORD
  5
13
102
{ACAD_REACTORS
330
12
102
}
330
12
100
AcDbXrecord
280
     1
270
     1
271
     1
  0
XRECORD
  5
E1
102
{ACAD_REACTORS
330
12
102
}
330
12
100
AcDbXrecord
280
     1
 70
     1
 90
1959938040
 71
     1
  1
7F14209A-7646-4A95-AB1C-3E981C39EFAD
311
504B03040A00000800006D677B433DEE336E79000000790000001B0000006175746F6465736B2D64657369676E2D7061636B6167652E786D6C3C3F786D6C2076657273696F6E3D22312E302220656E636F64696E673D227574662D3822203F3E3C666F726D6174733E3C666F726D61743E687474703A2F2F736368656D612E
311
6175746F6465736B2E636F6D2F64657369676E2D7061636B6167652F323030393C2F666F726D61743E3C2F666F726D6174733E504B03041400060808006D677B43FAA28935A700000035010000130000005B436F6E74656E745F54797065735D2E786D6CA58FC10E823010447FA5D93B143D1863281ED43FE0076ADD4223DD
311
36ED62F0EF2DE16ABC78DC9DC99B99F6BCF849BC30651748C1AE6E402099F070342898D9564710E7AEEDDF11B3285ECA0A46E67892329B11BDCE75884845B12179CDE54C838CDA3CF58072DF34076902311257BC32A06BAF68F53CB1B82DE5BDE5DE1D81B86CBEBED814E818276734975A321846AE3227D41EE4578023FB1F
311
A00CF80158D5122CD76EB9FB00504B03041400060808006D677B431218D3B5FA0000009701000008000000636F72652E786D6C8D905B6EC3201444B782F8ADB00DA9E3873051EBC70ABA0104C44189C1E21175F9C58923B57FFDBA57C31CEE68E8E97BB981BB725E5BD3419C15102823ACD466EE600C6754437062D4591B7E
311
D920307C511DDC64C8E8EC6C5C774958139409493556AA5DE4DEAB0081B8A5A5835E5CD4C2331E4372F86BB67271E5B3CAF06B4B708C5A82E7112DD37FFAAC95836C9AA6A1FC20356A3EAB12BDF76383EA61AA505357C3381DFB9E8C25CD3798D1A097D77DE1140F4A42460A7C401823527D61D2964D4B8E6F056E8B82E69B
311
FD0F1457F94F286A130E648FFBC43C643805793C30EA834B85EE865442009EDF539E9CD17CAB298D4787696E95B21F504B03041400060808006D677B43E5B03C9B7E0000009D00000007000000636E782E786D6C4DCCD10AC2201886E15B91FFDC96CC56813AF6A7DDC7686EC89C866974F96DB1838E3E78F87845FB593C79
311
DBF4723148608723101B1E7170619250F2482F405A25528CF9EF0624F48B95B0312831A5589E3B0D76EC8BCFAB7A17E61D91A141AD919A3332CA8DEE28B23BA7CD899BAEA9AF5DCD6E502951FD4AEB6E61F505504B03041400060808006D677B431790C2FE2C0100001E0200002D00000042314245424444422D453742312D
311
344544412D423146342D3635344541363339413331432F636F72652E786D6C8D51596EC32014BC0AE22B55E505DB711661A2B8714FD00B38F092A2C460B154397EA176D2F62F3FC69A37336F60E8EE365CD117182BB56A3049738C40712DA43A37D8BB53B2C668C7A8D1DAFDA161A4FA011A1C61CCE8D9683FCE10D7CA8172
311
01555AC00CF6D682C3885FC34F832DFF84A14F7BEF02C35ED2B1E797FE0C2949C338F018B5CE8400685A12BF98B5A4EDDAC3A14DBA554B92AA3BEC9396BC5749BDACBA7D5D6EF62579A3D92464D47B2966B914218E3C4930CF9A4431A34E0EF7F8DC40EF406056E4A44C08498AD50729B6CBCDB6A85F73B2CD739A45FA3F91
311
1FC593222F952B8B39EE24B398119A4D034685F6C7EB3D0CDC466D1C8AFB1616F80BCEC27583435DCD0ED669139E7371393E660F77188E20901E5DA81BB3E5EF8A2CB6C568F653653863B3EC1B504B03041400060808006D677B436A77868595000000F50000002C00000042314245424444422D453742312D344544412D42
311
3146342D3635344541363339413331432F636E782E786D6C5D8E4B0EC2300C44AF12795F023B164E2A246EC00942E396887C503E88E313438550375EBC9979328EAFE0C5937271292A38ECF620284EC9BAB82868751E8E20468D39A5FA5703114D20058C41E392537BACC8D26C9AAF9D7A17EF2B3C9542F56CAAE99897C2A7
311
C9F82EA038B402FA97A3E458A3E4B146BEABE232DD2898DE456E6C0514AE642D5951BEB58D477E3EEC5A7E58BF01504B03041400060808006D677B4376F57B2CFE000000A00100003700000042314245424444422D453742312D344544412D423146342D3635344541363339413331432F4173736574446174612F636F7265
311
2E786D6C8D505B6E842014DD8AB9BF0D2A4CD5D12093A98F15740344194B6604C3A3E9F20BA34DDABFFE70E13CB827875EBED647F2298C955AB580D31C12A1263D4BB5B4E0DD0D9D21B9306AB476BF649028BE8A16220C8C2E46FBED8026AD9C502EA04ACFE200B9B5C241323DC2A5053B7D8895A7DCBBA0B0F774E3D39D2F
311
22C569A0838E51EB4C0890EC4BE209EC1ABFE8B9E334DB5946BD97F3A19173D8296F521860E338F6C59554A87EAB0AF4DA0D353AF763789EAB7E18CBAE234341B36866D4C9F527E3640477620646727C42182352BD63D2147543CA971C37794EB328FF63F2DBFC4F9397CA9DC81177B759606508F22418CD625F613CCB0C33
311
76CBBE01504B03041400060808006D677B43E029455F77010000860500003600000042314245424444422D453742312D344544412D423146342D3635344541363339413331432F4173736574446174612F636E782E786D6CD554CB6EC32010FC15C4B5F22B555F1126AADA4B4EA9D4A87782D7290A060BD655FBF7059BC891
311
AA9C7A687301B4CCCC2EA365D9EAB3D3E4039C57D6D4B4CA4B4AC048DB28B3AFE9806D764FC98A33672D9EC02831A2839AC630E56CEFECD0A75003AD183486A856E69082CFD02AA330E458233881D6BD38DB8343059E12A985F735F5F21D3A918B016D03FE903702455EE50EBC1D9C84A01893126DA5D02137986CF094CFD2
311
E4A84D667156440E678353249E6A1AD753D6913473F29D32AC080CCE3CBA604462E2571F8A107DAF9514F12D859508980510888E15610F60CE50759028D2814068285F94D5755655D9E26E5B2D96370FCBC5ED55592DCB921511CED9CE5A9D48CA048F6C4FA40D0783940750BCE6AC88967216D7845D1B8FC24898ABFF133B
311
7F967149263E7A0FB8153B0D9BF66932FDB75D394A9251936C5A72543DD78E237C44CF155C9283AF181ABD7B9BC6C8F88E5FB6E1244892A29F9C3CE7DE044ED8317BAE4CFBAFBF70318ECCF0A35D18ACFC1B504B03041400060808006D677B43FDD5A23384000000200100004F00000042314245424444422D453742312D34
311
4544412D423146342D3635344541363339413331432F4173736574446174612F446566696E6974696F6E4974657261746F7250726F706572746965732E62696EEB60C862F90F050C40C008C40D0C8C0CBC40DA3D352FB5283339383923353791811D28E254E99358995A046242259980A220AE4B6A5A62694E09489B6F6671
311
726A4E4E625E6A7E69B120501EAA542137B104685E628E1E481327500226500C32211D621B23505C828101E424492093C137B1A438C61D2217930EA1F50AF2D2417274C000504B03041400060808006D677B432259D204F4000000300200004500000042314245424444422D453742312D344544412D423146342D36353445
311
41363339413331432F4173736574446174612F496E7374616E636550726F706572746965732E62696EEB60C862F90F050C40C008C40D0C8C0CBC40DA3D352FB5283339383923353751052860EE6668626460E9A86B6E6662A66BE26869AAEBE864E8AC6BEC6A6961E86C6CE9EAE6E8C20E5407D508D2626C68E2E26A646AA9
311
6B6A6262AC6B626664A8EBE4E6E4A26B686E6CE06CE6EC6CE9E86A09B2934133A6FFD0578D2BF6509A09684C030303038C6F0F6403D1077BA0DB8034038380038300031CA83830E007408D10057006848B49C2158019CC40050D0C60F000EA061E300F9D00852142E603542DBA2A0686949D0E0C780176AD20E341E109D2FA
311
C19E05483102311F10079727962467E83A1525E6A5A4A680DC0B14A4190200504B03041400060808006D677B43394B6D3351000000570000004700000042314245424444422D453742312D344544412D423146342D3635344541363339413331432F4173736574446174612F41737365745461626C654F66436F6E74656E74
311
732E62696E53616060307733343132B074D435373331D33571B434D575743274D63576B5B4307436B6747573741102AACB4D2C492DCA4CCC492C28484D2C4ACC4B4E050A82112F90744FCD03CA26072767A4E6260200504B03041400060808006D677B43F865834058000000680000004500000042314245424444422D4537
311
42312D344544412D423146342D3635344541363339413331432F4173736574446174612F53747265616D56657273696F6E5461626C652E696E66558CBD0A80300C06F73E4B117FB66E451741D041DC5BF98480A492E4FDD18EAEC7DD4555D89EF28DF51A0B1BD8340C4DE7DD848B988C0ACF0649566493F2408C508DDEBB99
311
D5129FF8F1AF8CF5B9503E20FAE5A16B5AF702504B03041400060808006D677B43EB9C3570FD0000009E0100003500000042314245424444422D453742312D344544412D423146342D3635344541363339413331432F536368656D61732F636F72652E786D6C8D50596E833010BD0A9ADFCA809D121619472DCB05DA0B58D8
311
A156828DBC543D7E0DA152FBD79F99D15B344F8F5EBE967BF229AD5346B780D31C12A92723949E5B08FE8A2A482E8C5A63FC2F19249A2FB2850D0646676BC27A4093D15E6A1F516D843C40EE9CF4904CF778B4E0A60FB9F094071F15EE96AE7CBAF159A6388D74D431EABC8D0192C7936D027BDB4D8E660F8ED1109438144A
311
C48FEAAAA405368E635FBC900AD5AF65819EBBA146553F96A8AECA7E18CF5D478682669B9951AF969F849395DC4B018CE4F8843046A47CC7A429EA869C9F72DCE439CD36F91F5358C53F4D41697F2247DC87CD01C331C84E309A6D6DC5B55719F7D62CFB06504B03041400060808006D677B4381F273B228010000D3030000
311
3400000042314245424444422D453742312D344544412D423146342D3635344541363339413331432F536368656D61732F636E782E786D6CD593CB4E042110457F85B035FDA08DAF095DB370E1CA8DE30F205D3392A1A90E0FA37F2FF4B01813B71ADD10AA38C54D5D28B97D9F2D7B431F0CB9918BB6E70C9DA6C9B8C3C853
311
DC37B79C6D417AA2788671E6D48C232F690EF2E0292D3535E15E251B73D61A77ACC97B9A67723BFD8AB3E24C5B15C2C8C31AB62A459A301CDB4945D58AD663A0E435E61B8A08B3A495CD5AE89A1438ECD62AB6371665570090C99BAA53620EE76A6DEE4F76990019A2CF5D55327E2C59412D8B355AC5DC7CB7822706643433
311
56527B5411270E432F2E1B219AE1E6590C9BABBBCD707DD18B4DDFCBAEE0205F886C2D322EA2A78569CA1B173964A81C83EC8A2D20CB5AD90774E88D3E35F6F3EE7C91FB07F63CA19BD03FE637F046D9DF72E93BD5BF6A56B7CE5FFE5A3E4F297C02504B03041400060808006D677B432F7B2A8D8D0100005E0600003D0000
311
0042314245424444422D453742312D344544412D423146342D3635344541363339413331432F536368656D61732F436F6D6D6F6E536368656D612E786D6CC5944D6EC2301085F79C22F20550BB4E90A0486D24D44551BA1FE201AC3A76E43841B97D9D716A151228B448CD2A9267BE37CF3F2F9E5715DA75BEC702669388BE
311
384B97510332614FBA28B4F2AB6C3689A76E2554ADAD116A17099EB00554D8574565BD91224FD81664852CE2B8154A58A1556AD180D566091612664DED569B4E85C89E16E0A9B2B84343744F7E4753390A3B1530085C2BD91E211F89D94302D46B10936CAFC4265D326F95451236E83C7F5BE91CFB9E3104743B67DBD2D938
311
F13C3A124D749E26750EF22A1A551EB9BD06ADA0F879D09BD159FA3AC6BD7CE837AB7C607BD0860F8E1EA4D487A296569412DD55AAB1FADA973B4F9083BB8EDAB4FF3802C72A37A2EC5ED2608A7BB8CDDE56F432ECBE2E360A841CA8FC7ABBDDD1248C2EA913094F69A1B5445024FA2238473550BCEC8BB05B8A99EEA5F6BC
311
C0CF6AC109DE27C7B30BAFDF28F8C11D2C90FB5C21787326969A2ED91EA8B72F1F6D37D888D158BBD0EF3691A49D9F10AE0363E733C8B58751DC3FA1E6BC019523FF2B329ECEBB54F4893D9B7C02504B03041400060808006D677B437229482E27050000001600003E00000042314245424444422D453742312D344544412D
311
423146342D3635344541363339413331432F536368656D61732F47656E65726963536368656D612E786D6CDD586D4FE33810FECEAFB0F27D4BCB1DAB5BA9456A41F4FA0171A2705F2D37718AEF9CA4B29D42EFD7DF783C3549CBB601F676B587549197F1CC3CF3F278E2E1D85AE9E6E9A32CC4C509C3BFE1C3EC8AAD851E25
311
53594AA3D2F03AB938199EC2AB2836115606B93B5966D2DC0807D24237C4BD4894779B15C9172429562B298C285389CABD40949E954E2EA5612A1B2541E39FD2585595095BD50BADD251920B6D65C28C145955EACD2871A686FBB5777D801A4949543A7746954BD4A9AB54686FF1A83E946C291FB7FD0E5ABF6AA414057875
311
C4E97D23147CC4B1636152555A8A1271A495AE0C5F6C78B5F84BA62E0919C94368B45848C8E3A59761930DBB0D323E93A4237A1D647CB49721EB3C53795EFB000BADABA7B42A4BD02F33E12BC68E120B91D4006C2DF4DD28E9F77E199CA3F169F366D2BC198F9241C29A3E2138B41CFDB8D69570886CC70FAE0AB1943C1799
311
443B4D6533FF8A5DFB57172754C68C0D27555D6696ADA44965E960F5368BAA4C8D2CE09955FF485454A852157501EE268CAE15204C756DD51A44426915E23948010EBADE970AD1F59623A85344156FF1AE85D1C85C4374D55AB90D178EF733B94CD8D1C0A3BB14D0BB860A8C2B5A7983CD2FDFC3E8525716E22AADED06AF77
311
1E2B66FAB2D487B80D8FCAB915546579219DD0542E79AB277E57CB470D3F673158B4FE40B81C10955D0923CB74D3CDF7E8F97D73E9CF59A0AE01E1FFDE8946A40E361AAE60577BA6E219F4CECF623EA1D548066AE720DD50CD1DE29B5EDF9349A09F7D32614433A3041A81AEF7A57C3F04B28B05DC85720804C7E4EA1A4832
311
DDF027E9BBE23D154E1A8EC52450E9A190FC100A4E6B57D58E572B91020977C20F8923F2BDC4C5814A8E13D342A47FE722953CADF5EBEC34210976E925427A71CF8FF9452B2DBAB352E75C695D171C7EAAC4B92A8C03FD58BA731062332F0402BECA215BC3A3B5626115A94EFD2CC19D2C605715AE36921AE4F379FFC5CAA5
311
1762F70D210F015D8E00824C73E06858C9958661921762D5211177B883AF8586D10352021793ED93D6C8718D4A191A46D878151D42F75A115DD4C58A8B02A60898ABBA6CC6BDB32F3B7F31F0E3A0E608FBE7618F3AD01C9F06FD7EBF5B8304C130B2BC8733303CFB01E99C1470738D490917909470D14ACA0462FC4A32683F
311
6E591715AF60FC079D71F6A7F61B170B05D31CBB4D716003295F6FA4232698BE0676755A51ACB4847904150F3EC794CDE9C58773063B478799F2EC1C4CBF89E2095004B85FC110B24C59D7A0825F23BC1BF1CCAEB62F7DBC70795446D1DB8D56061395D2DB68052EA72C3CC0F760A8996B5315ECD63DC2F7DB0D7DEB056E24
311
A5D1089A6C9930D06D595A19F8F2B4DC884CD560AB4BEF455C775E037439AAC0D2422BD126F9F075AB680D3F7F244C7B0E5808B848416712D5E57009B447A8275A96197B52EEB11362CA59DB3A8CEE3C932BF74816A04F483B8C1AF8615095CCE7EBDEC0B6C1AE50F4C3650956BA94A5177B0B8910C2186FBADF456C5A883F
311
017113E4DBB534466592017680EB37A96F85D85BF9819029937CE9BF6436DC12BF843D7A002C411100E024CAA628CAE624FA9D723E38FB0DB698FF22E9345A2F11D6C1086C533F45D19F3B0245150F2D1AFCEB1F7ADEA506890D532BEC15386B93397C17F806387A48B5F6875EC0B5F6741A8E6FB6FF1F66BDE742230DD66A
311
D7C4385BFBAD21FB36A65EB4BD6652F95DD69FB9080F0811CE5A8F6E600787B324015FD7470ECBF6C186B5780C146DAB96F608BDFDF8153F6EA7F377841B567DD8F21F46AE957C7A87755A89BBEF413786A7637F7E174E542F4EFE05504B03041400060808006D677B430A3355BE7401000017040000450000004231424542
311
4444422D453742312D344544412D423146342D3635344541363339413331432F536368656D61732F52656E6465724D6174657269616C536368656D612E786D6CAD93DF6AC23014C6EF7D8A90075895B1BB54D00EA430D968A7B725B6C73690269244C5B75FFED955866C0C7B9593F3E577724EBE9285D660CABA839ECE27C8
311
7F6493BFA213E5292E4034A0D6D480629407159E4F486215837A4935047926FB5E8A91CCA5065D2E0CB4A0106B521C345B509A4981D1E1B8E3AC4EF19E720D1829A08D14FC9262A38E363EB9BBCC7CE10819A09BE2CD03F3FEC0A10761A8B1C4B55BF0825EFE86F6644BFA85FABE2A1FCAFB507062707E287305C2BE55FD4F
311
66691413AD1FA83E5353773F38FE29FCBC82761859D64956833F5A7B1B54654715349537180E068919ED331871BA03EBB2D286B6ACA546032244026E4BF9F186A9AD149A489BDE10ECB673E6E8E0F56EF771CCDAFBE03C2E4C64CE06663ECADD01932454BB16224B293950319EC22713A632B26DF9D5C8FB60F2D8BCCBDBCE
311
4912CF0EAC4C72197E963835A7AC6AB7EBEF5AA478FAF43C7BF1C16A1C2CC7C122C5DF3D3904CA3CC2B7E456A12049FC3B85FF723EF902504B010214000A00000800006D677B433DEE336E79000000790000001B00000000000000000000000000000000006175746F6465736B2D64657369676E2D7061636B6167652E786D
311
6C504B010214001400060808006D677B43FAA28935A7000000350100001300000000000000000000000000B20000005B436F6E74656E745F54797065735D2E786D6C504B010214001400060808006D677B431218D3B5FA0000009701000008000000000000000000000000008A010000636F72652E786D6C504B0102140014
311
00060808006D677B43E5B03C9B7E0000009D0000000700000000000000000000000000AA020000636E782E786D6C504B010214001400060808006D677B431790C2FE2C0100001E0200002D000000000000000000000000004D03000042314245424444422D453742312D344544412D423146342D3635344541363339413331
311
432F636F72652E786D6C504B010214001400060808006D677B436A77868595000000F50000002C00000000000000000000000000C404000042314245424444422D453742312D344544412D423146342D3635344541363339413331432F636E782E786D6C504B010214001400060808006D677B4376F57B2CFE000000A00100
311
003700000000000000000000000000A305000042314245424444422D453742312D344544412D423146342D3635344541363339413331432F4173736574446174612F636F72652E786D6C504B010214001400060808006D677B43E029455F77010000860500003600000000000000000000000000F606000042314245424444
311
422D453742312D344544412D423146342D3635344541363339413331432F4173736574446174612F636E782E786D6C504B010214001400060808006D677B43FDD5A23384000000200100004F00000000000000000000000000C108000042314245424444422D453742312D344544412D423146342D36353445413633394133
311
31432F4173736574446174612F446566696E6974696F6E4974657261746F7250726F706572746965732E62696E504B010214001400060808006D677B432259D204F4000000300200004500000000000000000000000000B209000042314245424444422D453742312D344544412D423146342D363534454136333941333143
311
2F4173736574446174612F496E7374616E636550726F706572746965732E62696E504B010214001400060808006D677B43394B6D3351000000570000004700000000000000000000000000090B000042314245424444422D453742312D344544412D423146342D3635344541363339413331432F4173736574446174612F41
311
737365745461626C654F66436F6E74656E74732E62696E504B010214001400060808006D677B43F865834058000000680000004500000000000000000000000000BF0B000042314245424444422D453742312D344544412D423146342D3635344541363339413331432F4173736574446174612F53747265616D5665727369
311
6F6E5461626C652E696E66504B010214001400060808006D677B43EB9C3570FD0000009E01000035000000000000000000000000007A0C000042314245424444422D453742312D344544412D423146342D3635344541363339413331432F536368656D61732F636F72652E786D6C504B010214001400060808006D677B4381
311
F273B228010000D30300003400000000000000000000000000CA0D000042314245424444422D453742312D344544412D423146342D3635344541363339413331432F536368656D61732F636E782E786D6C504B010214001400060808006D677B432F7B2A8D8D0100005E0600003D00000000000000000000000000440F0000
311
42314245424444422D453742312D344544412D423146342D3635344541363339413331432F536368656D61732F436F6D6D6F6E536368656D612E786D6C504B010214001400060808006D677B437229482E27050000001600003E000000000000000000000000002C11000042314245424444422D453742312D344544412D42
311
3146342D3635344541363339413331432F536368656D61732F47656E65726963536368656D612E786D6C504B010214001400060808006D677B430A3355BE74010000170400004500000000000000000000000000AF16000042314245424444422D453742312D344544412D423146342D3635344541363339413331432F5363
311
68656D61732F52656E6465724D6174657269616C536368656D612E786D6C504B050600000000110011005A060000861800000000
310
504B03040A00000800006D677B433DEE336E79000000790000001B0000006175746F6465736B2D64657369676E2D7061636B6167652E786D6C3C3F786D6C2076657273696F6E3D22312E302220656E636F64696E673D227574662D3822203F3E3C666F726D6174733E3C666F726D61743E687474703A2F2F736368656D612E
310
6175746F6465736B2E636F6D2F64657369676E2D7061636B6167652F323030393C2F666F726D61743E3C2F666F726D6174733E504B03041400060808006D677B43D486FD9CA0000000F4000000130000005B436F6E74656E745F54797065735D2E786D6C7D8EC10E82300C865F65E91D8A1E8C310C0EEA1BF002731658846E
310
D98AC1B77784ABF1D8FE5FBFBF75BBCE937A534CCEB38643598122B6FEE978D0B0485F9C41B54DDD7D022595594E1A469170414C76A4D9A4D207E29CF43ECE46F218070CC6BECC4078ACAA135ACF422C856C0E68EA1BF5669944DDD7BCDE7B1F8E415D77AECB980613C2E4AC91FC167A2B244592486606FC29C8FD7F045B9A
310
EF7053A7E60B504B03041400060808006D677B4338A75D3EEC0000007C01000008000000636F72652E786D6C8D90416EC3201045AF82665BE100766CC7C244695A9FA01740405C94182C03558F5F9C3852BBEB6A467FFE9B197D7EFC9E6EE8CB2CC17AD7032D0820E394D7D68D3DA478C12DA0A3E08BF7F1970D909393E961
310
9541F071F169DE24E55D342E66D5796D36518660222075CB4D0F417D9A491632C5EC08D76296EA2A4753D06797E194AC468F2356E77DF662CD02E2B5AE196B4F156E1A52E28A5567DC0EEF0CB3E15CB6C3A9D9B3C31BDFADB0E0D14ECFFB6A31321A0D82115A624A316B3E28EBF6878ED52F847684F0DD6AFF03A559FF134A
310
D6C5926DEF3EB00082E647EE03C1776B16B9DC83CA75CD4DFC00504B03041400060808006D677B4355019EA25F0000007C00000007000000636E782E786D6C4DCB3B0E80201045D1AD90E915ED2CF8AC45050C11660C8261F98AB1B07AC9C97D42D718D865D3E909258CFD00CCE24AC6E326A164D74DC0B4128928FF326038
310
472BA13128B1252AC747C6BAB984FC68F0B87FE8960A5C09FE86CFB69FBA01504B03041400060808006D677B4349E8CB8B68010000020300000C0000006662782F636F72652E786D6C8D52ED8E8230107C95A67F2F505A50D1941ACF3B9FE05EA042E588D092D2121FFF960FC37931E642529A999DDDD901BEBF3535EA95ED
310
2AA3334CC30823A5735354BACCB0779720C5682FB835C6FD2AC348CB46657880B1E0A535BE9DA1DC68A7B403549B42CDA0EC3AE530CA6BB864B8CBBF552343E91D5474D7B095F955962AA421D0502778E72C1840D390E1C4E272BE7132E1827B5F15335B1530ADBA54CA62F1BE5E33961E9260B389E22061C931484F9F2C60
310
A7639C9E0E9B15DB7E7032880577557377975B259D2AB060118D034A03B6F9A26CB7DAEED8FA2DA2BB28E264287F10F9B6F8A7C857DAC56CB63BC93A2C281819893FDB42440E75B2073F4470328408AF31E1C7A0211008D9C9737DDFE30A50AF72676C024C61FC42F5B2F60AA646687C389958E83C3680CD9EF6612FFABCEE
310
011F50EA12AC4907D7B377C3743E4D9DA368950D7A7743DAD846D68BB9C9E2722E839ECA73531BFB1F35995725739864F87BC50F504B03041400060808006D677B431F99FBDC7E0000009D0000000B0000006662782F636E782E786D6C4DCCD10A83201886E15B91FFDC556839418D69DB7DC4B290990EA76397BF1A1DECE8
310
83878F57F49FD5A3B74D2F178384E65403B2E11E2717160925CFF80CA85722C598FF6E80C2B85A093B83124B8AE579D064E7B1F8BCA977E171E08D31C234EBF0C0B9C19490065FBA7AC0F44A5A4DA93686B7502951FD4ADBEE61F505504B03041400060808006D677B43933054D22C01000014020000310000006662782F46
310
373733374237362D443939432D343333312D413630442D3445333542343442434339352F636F72652E786D6C8D515B6EC32010BC0AE22B55850D86D87184899AA43D412FE01892A2C460F1A872FC42ED48ED5F7E58343B333BDAE5BBFB7803DFCA796D4D074981215066B0529B4B076338A30D043BC19DB5E10F0D02D38FAA
310
831986825F9C8DD3020DD6046542428D956A017BEF558060B8A54F07FDF0A5C6BEE863480C7F2DA67EB8F617559022B5134F701F5C0A00E621F985E2A36968B36F6A746CDB03629412F456E32362EF74BD676C7F38B46B5ECE42C163D472916B99E2E8B356EE59932C163CE8F1117F70AA0F4A425161421121A86A3E49B55D
310
B7DBAA7EC5648B312F33FD9F284EF24951D426D06A893BCB3C14849773437069E3E9F608A3EE937501E4792BAF861728708171BD691A56F172A6A60524CF9A2D9E3E589716BCBA9E129B2EC63513BCCC374AE5F780A9E67B8A1F504B03041400060808006D677B43DE8612615701000033030000300000006662782F463737
310
33374237362D443939432D343333312D413630442D3445333542343442434339352F636E782E786D6CBD93CD6EC32010845F0571ADFC8393BA698489D4439FA0875E316C121A1B2CC055F3F65D1292E69243A5AA1764CD0E33AB4F986FBEC6817C820FC6D98EB2B2A604AC72DAD85D47E7B82D56946C04F7CEC51B1B25568E
310
D0D12453C177DECD5396346CE53C445407630F59F410DCEC150494D34D323825070C005BCC28C2D883D6A0C9D5885F5BF0B80A8AFD91C43D90D79777E2FA0F5031F02AA5085EA50EC1D3999B6E4C94A84186D0D1A0F630CA52CED169088752CB284B565EBAEEECF49344D2854BE5EC0D49E51D4D271579A31239F20A878287
310
E8915E36C5E30454C8691A8C9211215727E3D923F86C6C6C97D96B10BC47F7A269572B0C3BCD048F6684EC501E64044D4553B345C158D13CBDB166FDF8BC6EDA879AADEB9A57C92E78EFDC902F610C783711E56C041BA960BC4AE37BF8B28F68E391B5F3C75F804400B9F54CE79AF1977C58BB582EFF914F757ADF88CBE35F
310
20BE01504B03041400060808006D677B434DD74435510700004F1C0000340000006662782F46373733374237362D443939432D343333312D413630442D3445333542343442434339352F6F626A656374732E786D6CED595B6FA3481AFD2B887DD97D3036B6938E578451E274226B2633AD89BA350F915019CAA4365CAC2A48
310
DBFBEBF7D4050CD8A4F14CF66D1E6C6CA83ADFFD521FDE4FBB34B1DE28172CCFAE6DD799D816CDC23C62597C6D97C56674655B3FF91ECFF3A2B1CCB63292D26B5BDEB67D2FE679B935B722BA21655274EEDEDFFE61899066D4B6C28408716D8BF085A6C42165914754BC3A112988136F768EEBE8856DD89893ED4B07744B38
310
CD0A708AFB19502CCD94DBFE3BB1C7BE3796CF7D4F7E9B55D341AB66FDABC64AEA36972C1305C9C223963A30D3412CCDDCF9DDE7E9C56274319FCF46F3CBA93BBABDBFBD1BB99F6693E5E572B9B8F9BC007BEB3C4F8C4C11DDD22C82FDF6B6EF7A63F9A416DD68E014D7619E6534548A84AA94585D4046054835D43769FF75
310
A5448DC74AC2C6FF997C6E5868DCEE18A167D54045B47021882157495C5D9BF2E5EBFF407031C429B9A0D2A945C1615DA31E8EA8B0FD8937D6777D6F7DB00513564A0ACA1949AC84AD39E1300A96CA25BEA7371818191C1C50969440594E3F6EFB1622F3C7A1738ACB4D992432326C5F055680F0A385509CB1FF527EE0BEA9
310
19F0040B972C2BAE0C97C57E4B6D7FE18DD54DDF9397D9D43CD48AB4360989E12810533FED08BA94A1BFBAB3FD9FEFD7BB27990E4E13DFF27C4B79219D4EDA51F105473657A92543D61D6439B901C268A59A9D07A5FC0ECDFF8AEC71600576E36C37DFCDCDDA82934C6C729EC236D6C41A4DF035B15CF52D7F377E79E37A73
310
DB7A7DFA44984A555DFD757DB66550BA32FC37D4E97B6F70F89CCFCCA3A79024F0E747964141D249AC24C72DA4F6CD7A67FB2B244E247AEC2289EF4264B0FB869FDED8C01CAC52859789BA0C1A3534A6438C04B5298F041B3D767A40F5E02C3C98A929629F7A2F3EC45D6FEE9E7E7E2AF98684F4D1C4F41DDDB08C15A89AA7
310
196AE9BC2511AA5DC8D9566EB57D23549D2A9C035A6BD32BDD7FCF7904ED1C1BE9A969A4D4F0276022692869ADB8D29CFCD34320C4BE389739CAFB0105482E0B7C03FF9189902609C9685E5674EB9428BDBB4E13A6D1B0FD99B6CB6CDAF17B4EDF986C45106987152D4D7CD3BDCAC35799477A84F9BAFA155E6BA3DEE3F28E
310
473F0C508CF84E8AF0E5C7584F6ADDE816B922A291D14EAD85F5A130847992F360BD0F74CE3C89FCAD157848A7DA721205B1A822B84A4EB1962188D866530A64E813F6FBB65A367D64E2CCDC0BABF9DD09EB39F236B200E126823B3402969298061B12F5916B52ABB18582EC81E67493402EF6C68A7D408A6012D1F81CD59C
310
05BEF850F438C985601915A87C2795DFD4C6C4414AD2D6AC589656ED289A8920A50549CED18084E951AE2A60AA5B0ED184FC98C7DA7BDFB35813F4FFE4119CA02BCDB380A1A9DD0DD085EB5C4C07F10E6FABB0951849896624DC07DF298B5F8A0194EA90AC8CA8AF1D338638DC9445906F4908B71E007B142BD2A81DD03509
310
5F65250AC232F928071134D9042C49CA34C0876538C30C09ED615A6880EBDC57D014ED1D294A3E84C8E5C5E4888EEE3EBA29B04168C312F4DE414AB63D5A6F2544D5D958B5F20D7A4F30ADCB741B90342FB3418EE2CCBA1E69E0BB6695B003F9954D271AD00AD800FA1EBAF5BAD456391BAE9E043818162F3D9A6865A70A52
310
21F503CA4C8DB854996F1F08926E137D403CAAB7ED4AE6D6E1F93E016E02FF6309A4F9A08235EF28A1EA6C9BFD26B42AB37DC9993163F152A6EB8CB0D311D92AE78FA410CF0FBA6C3FC7FAEA6CB3B8220B50744535321A9DBAD73C69C27EF0070DFE75E560CAD303BF92B64B695610D9913ECA1FC9EFE47499E8A7A4F7AD64
310
5F3098D66F0F4F67CA831D83D1BFC856927E3F9382D9B5943DDA11A9CA11EAAB3CE4A0C9845B192F98FD7DD469CE47FE3EEAE0588DFCAFCF40086A95F58CAF48FF3CE3A86362F92F9E786EF7BF90BD9CF998165459AB35B70AA5EB9F753CA9EBA66C563EE278A2062B356A5DDD4EB65848C455B118DC2556995003F671FCA7
310
BB89BEEAACC919EBC73A3507E77513EE5127D43A1BAB23717654835B69FBD3BD3B9F4E1637A34F97F3CBD1FC667131BAB97597A3D9E7C595BB9C2D3EDFDFDCD50A32EE51273C55027D740C4879B898BF320D1AB1304A1679C2224C13222BA6394E3198290C98F9F3940AD5A100D96045E64DC280DD6F7A385B907542CDEEF0
310
8560AA9D081400E8A80C8BF67DEB1F98A7CA91E6B58D4997F38A2FE368B685027C6DBFC901644885B3C66C4C4E2115782786A11F92C5B2F7D19BEAFFF52EA99B5689A8970C2915462E9D3F8C00E811B718D9B526248A37F3FC3CC12B762C52E0E7BA2CD0C769590E376A611419D85D0B65267D09CB5E0DE91DA2F17DB15C47
310
AD696964D078FF5D27D0A8A382F0580DE9257F86A59BBB2F630C07ADD56FD6362963D87238D28853387329FB227811BCC2606E896CA697FF7EFEC273BC974AAD7B0617B0FEB9BBBAFCD7F3324FD33CD3B79E6F70008CF076CB7A7AC1BBAAE819AD1F956F04C4F374E2CE9ED524DEBC1C08D644508744E21537BC71C959ADE8
310
96F9E1974755C358622C4DD1F1D0D59D65F2E21CA0AAFE1C0DA6F59B390B3124DF01C98851815D49FBEE307EAC9682558E31BAFF3F504B03041400060800006D677B43000000000000000000000000350000006662782F46373733374237362D443939432D343333312D413630442D3445333542343442434339352F766572
310
74696365732E62696E504B03041400060808006D677B43F270F1330600000004000000360000006662782F46373733374237362D443939432D343333312D413630442D3445333542343442434339352F747269616E676C65732E62696E636660600000504B03041400060800006D677B430000000000000000000000003700
310
00006662782F46373733374237362D443939432D343333312D413630442D3445333542343442434339352F617474726962757465732E62696E504B03041400060808006D677B43B28BD8DE8F00000041010000360000006662782F46373733374237362D443939432D343333312D413630442D344533354234344243433935
310
2F6469726563746F72792E786D6C858F410EC2201045AF4266AF15DDB800BA74E7C21B903225242D6328188F2FA5C4183471359997F9FF81E89FF3C41E1816475E02DF1F80A11FC8386F25A438EECEC07A250251FC3803E6F58C12560C4AD840E95E91C151A72936F496F35732D860FE635F62C8F2DA16B505C545B74125BA
310
A2FA9E05D7CC053D063734D5A7665FD55B6B8D15D5F1BFEAFD8490FFA45E504B03041400060808006D677B43E7C99786FE000000A00100003B0000006662782F46373733374237362D443939432D343333312D413630442D3445333542343442434339352F7265736F75726365732F636F72652E786D6C8D504B6E833010BD
310
0A9A6D65C02609041947695A4ED00B586642AC041BF953F5F835814AEDAE9B99D1FB689E1E3F7D4D8FEC139DD7D67440F3123234CA0EDA8C1DC470250D6427C19DB5E1970C322327EC608141F0D1D9386F90B226A009093576C00D94DE63804C3DD2D18157379C642E63480A7FCF67A9EE72C49CE6894E3AC17D702940B63E
310
59260887DE46A7D0F36265058F510F9B460FE9A7BE6A74205E0F07C69A7345EABAACC88EED2EA4E9DF1961FDA56AFA73BD67C7375E2C66C1839E7E322A8732E0008295B4229412567F50D6EE8F2D3BBC94B42D4B5E2CF23FA6380FFF34456D42C5B6B8ABCD83A029C89310BC58FA4AEB5966DA4BB7E21B504B010214000A00
310
000800006D677B433DEE336E79000000790000001B00000000000000000000000000000000006175746F6465736B2D64657369676E2D7061636B6167652E786D6C504B010214001400060808006D677B43D486FD9CA0000000F40000001300000000000000000000000000B20000005B436F6E74656E745F54797065735D2E
310
786D6C504B010214001400060808006D677B4338A75D3EEC0000007C010000080000000000000000000000000083010000636F72652E786D6C504B010214001400060808006D677B4355019EA25F0000007C000000070000000000000000000000000095020000636E782E786D6C504B010214001400060808006D677B4349
310
E8CB8B68010000020300000C00000000000000000000000000190300006662782F636F72652E786D6C504B010214001400060808006D677B431F99FBDC7E0000009D0000000B00000000000000000000000000AB0400006662782F636E782E786D6C504B010214001400060808006D677B43933054D22C0100001402000031
310
00000000000000000000000000520500006662782F46373733374237362D443939432D343333312D413630442D3445333542343442434339352F636F72652E786D6C504B010214001400060808006D677B43DE86126157010000330300003000000000000000000000000000CD0600006662782F46373733374237362D4439
310
39432D343333312D413630442D3445333542343442434339352F636E782E786D6C504B010214001400060808006D677B434DD74435510700004F1C00003400000000000000000000000000720800006662782F46373733374237362D443939432D343333312D413630442D3445333542343442434339352F6F626A65637473
310
2E786D6C504B010214001400060800006D677B430000000000000000000000003500000000000000000000000000151000006662782F46373733374237362D443939432D343333312D413630442D3445333542343442434339352F76657274696365732E62696E504B010214001400060808006D677B43F270F13306000000
310
040000003600000000000000000000000000681000006662782F46373733374237362D443939432D343333312D413630442D3445333542343442434339352F747269616E676C65732E62696E504B010214001400060800006D677B430000000000000000000000003700000000000000000000000000C21000006662782F46
310
373733374237362D443939432D343333312D413630442D3445333542343442434339352F617474726962757465732E62696E504B010214001400060808006D677B43B28BD8DE8F000000410100003600000000000000000000000000171100006662782F46373733374237362D443939432D343333312D413630442D344533
310
3542343442434339352F6469726563746F72792E786D6C504B010214001400060808006D677B43E7C99786FE000000A00100003B00000000000000000000000000FA1100006662782F46373733374237362D443939432D343333312D413630442D3445333542343442434339352F7265736F75726365732F636F72652E786D
310
6C504B0506000000000E000E0080040000511300000000
  0
XRECORD
  5
17
102
{ACAD_REACTORS
330
12
102
}
330
12
100
AcDbXrecord
280
     1
270
     1
271
     1
  0
XRECORD
  5
16
102
{ACAD_REACTORS
330
12
102
}
330
12
100
AcDbXrecord
280
     1
270
     1
271
     1
  0
XRECORD
  5
18
102
{ACAD_REACTORS
330
12
102
}
330
12
100
AcDbXrecord
280
     1
270
     1
271
     1
  0
XRECORD
  5
15
102
{ACAD_REACTORS
330
12
102
}
330
12
100
AcDbXrecord
280
     1
270
     1
271
     1
  0
XRECORD
  5
24
102
{ACAD_REACTORS
330
22
102
}
330
22
100
AcDbXrecord
280
     1
270
     1
271
     1
  0
XRECORD
  5
23
102
{ACAD_REACTORS
330
22
102
}
330
22
100
AcDbXrecord
280
     1
270
     1
271
     1
  0
XRECORD
  5
27
102
{ACAD_REACTORS
330
22
102
}
330
22
100
AcDbXrecord
280
     1
270
     1
271
     1
  0
XRECORD
  5
26
102
{ACAD_REACTORS
330
22
102
}
330
22
100
AcDbXrecord
280
     1
270
     1
271
     1
  0
XRECORD
  5
28
102
{ACAD_REACTORS
330
22
102
}
330
22
100
AcDbXrecord
280
     1
270
     1
271
     1
  0
XRECORD
  5
25
102
{ACAD_REACTORS
330
22
102
}
330
22
100
AcDbXrecord
280
     1
270
     1
271
     1
  0
XRECORD
  5
A71
102
{ACAD_REACTORS
330
A70
102
}
330
A70
100
AcDbXrecord
280
     1
102
ACAD_ROUNDTRIP_2012_MLEADER_STYLE
298
     1
  0
CELLSTYLEMAP
  5
983
102
{ACAD_REACTORS
330
830
102
}
330
830
100
AcDbCellStyleMap
 90
        3
300
CELLSTYLE
  1
TABLEFORMAT_BEGIN
 90
        5
170
     1
 91
        0
 92
    32768
 62
   257
 93
        1
300
CONTENTFORMAT
  1
CONTENTFORMAT_BEGIN
 90
        0
 91
        0
 92
      512
 93
        0
300

 40
0.0
140
1.0
 94
        5
 62
     0
340
55
144
0.25
309
CONTENTFORMAT_END
171
     1
301
MARGIN
  1
CELLMARGIN_BEGIN
 40
0.06
 40
0.06
 40
0.06
 40
0.06
 40
0.18
 40
0.18
309
CELLMARGIN_END
 94
        6
 95
        1
302
GRIDFORMAT
  1
GRIDFORMAT_BEGIN
 90
        0
 91
        1
 62
     0
 92
       -2
340
0
 93
        0
 40
0.045
309
GRIDFORMAT_END
 95
        2
302
GRIDFORMAT
  1
GRIDFORMAT_BEGIN
 90
        0
 91
        1
 62
     0
 92
       -2
340
0
 93
        0
 40
0.045
309
GRIDFORMAT_END
 95
        4
302
GRIDFORMAT
  1
GRIDFORMAT_BEGIN
 90
        0
 91
        1
 62
     0
 92
       -2
340
0
 93
        0
 40
0.045
309
GRIDFORMAT_END
 95
        8
302
GRIDFORMAT
  1
GRIDFORMAT_BEGIN
 90
        0
 91
        1
 62
     0
 92
       -2
340
0
 93
        0
 40
0.045
309
GRIDFORMAT_END
 95
       16
302
GRIDFORMAT
  1
GRIDFORMAT_BEGIN
 90
        0
 91
        1
 62
     0
 92
       -2
340
0
 93
        0
 40
0.045
309
GRIDFORMAT_END
 95
       32
302
GRIDFORMAT
  1
GRIDFORMAT_BEGIN
 90
        0
 91
        1
 62
     0
 92
       -2
340
0
 93
        0
 40
0.045
309
GRIDFORMAT_END
309
TABLEFORMAT_END
  1
CELLSTYLE_BEGIN
 90
        1
 91
        1
300
_TITLE
309
CELLSTYLE_END
300
CELLSTYLE
  1
TABLEFORMAT_BEGIN
 90
        5
170
     1
 91
        0
 92
        0
 62
   257
 93
        1
300
CONTENTFORMAT
  1
CONTENTFORMAT_BEGIN
 90
        0
 91
        0
 92
      512
 93
        0
300

 40
0.0
140
1.0
 94
        5
 62
     0
340
55
144
0.18
309
CONTENTFORMAT_END
171
     1
301
MARGIN
  1
CELLMARGIN_BEGIN
 40
0.06
 40
0.06
 40
0.06
 40
0.06
 40
0.18
 40
0.18
309
CELLMARGIN_END
 94
        6
 95
        1
302
GRIDFORMAT
  1
GRIDFORMAT_BEGIN
 90
        0
 91
        1
 62
     0
 92
       -2
340
0
 93
        0
 40
0.045
309
GRIDFORMAT_END
 95
        2
302
GRIDFORMAT
  1
GRIDFORMAT_BEGIN
 90
        0
 91
        1
 62
     0
 92
       -2
340
0
 93
        0
 40
0.045
309
GRIDFORMAT_END
 95
        4
302
GRIDFORMAT
  1
GRIDFORMAT_BEGIN
 90
        0
 91
        1
 62
     0
 92
       -2
340
0
 93
        0
 40
0.045
309
GRIDFORMAT_END
 95
        8
302
GRIDFORMAT
  1
GRIDFORMAT_BEGIN
 90
        0
 91
        1
 62
     0
 92
       -2
340
0
 93
        0
 40
0.045
309
GRIDFORMAT_END
 95
       16
302
GRIDFORMAT
  1
GRIDFORMAT_BEGIN
 90
        0
 91
        1
 62
     0
 92
       -2
340
0
 93
        0
 40
0.045
309
GRIDFORMAT_END
 95
       32
302
GRIDFORMAT
  1
GRIDFORMAT_BEGIN
 90
        0
 91
        1
 62
     0
 92
       -2
340
0
 93
        0
 40
0.045
309
GRIDFORMAT_END
309
TABLEFORMAT_END
  1
CELLSTYLE_BEGIN
 90
        2
 91
        1
300
_HEADER
309
CELLSTYLE_END
300
CELLSTYLE
  1
TABLEFORMAT_BEGIN
 90
        5
170
     1
 91
        0
 92
        0
 62
   257
 93
        1
300
CONTENTFORMAT
  1
CONTENTFORMAT_BEGIN
 90
        0
 91
        0
 92
      512
 93
        0
300

 40
0.0
140
1.0
 94
        2
 62
     0
340
55
144
0.18
309
CONTENTFORMAT_END
171
     1
301
MARGIN
  1
CELLMARGIN_BEGIN
 40
0.06
 40
0.06
 40
0.06
 40
0.06
 40
0.18
 40
0.18
309
CELLMARGIN_END
 94
        6
 95
        1
302
GRIDFORMAT
  1
GRIDFORMAT_BEGIN
 90
        0
 91
        1
 62
     0
 92
       -2
340
0
 93
        0
 40
0.045
309
GRIDFORMAT_END
 95
        2
302
GRIDFORMAT
  1
GRIDFORMAT_BEGIN
 90
        0
 91
        1
 62
     0
 92
       -2
340
0
 93
        0
 40
0.045
309
GRIDFORMAT_END
 95
        4
302
GRIDFORMAT
  1
GRIDFORMAT_BEGIN
 90
        0
 91
        1
 62
     0
 92
       -2
340
0
 93
        0
 40
0.045
309
GRIDFORMAT_END
 95
        8
302
GRIDFORMAT
  1
GRIDFORMAT_BEGIN
 90
        0
 91
        1
 62
     0
 92
       -2
340
0
 93
        0
 40
0.045
309
GRIDFORMAT_END
 95
       16
302
GRIDFORMAT
  1
GRIDFORMAT_BEGIN
 90
        0
 91
        1
 62
     0
 92
       -2
340
0
 93
        0
 40
0.045
309
GRIDFORMAT_END
 95
       32
302
GRIDFORMAT
  1
GRIDFORMAT_BEGIN
 90
        0
 91
        1
 62
     0
 92
       -2
340
0
 93
        0
 40
0.045
309
GRIDFORMAT_END
309
TABLEFORMAT_END
  1
CELLSTYLE_BEGIN
 90
        3
 91
        2
300
_DATA
309
CELLSTYLE_END
  0
XRECORD
  5
A4B
102
{ACAD_REACTORS
330
A4A
102
}
330
A4A
100
AcDbXrecord
280
     1
102
RTVSPost2010Prop28
280
     1
102
RTVSPost2010PropOp28
 70
     1
102
RTVSPost2010Prop29
280
     1
102
RTVSPost2010PropOp29
 70
     1
102
RTVSPost2010Prop30
280
     0
102
RTVSPost2010PropOp30
 70
     1
102
RTVSPost2010Prop31
280
     0
102
RTVSPost2010PropOp31
 70
     1
102
RTVSPost2010Prop32
280
     0
102
RTVSPost2010PropOp32
 70
     1
102
RTVSPost2010Prop33
280
     0
102
RTVSPost2010PropOp33
 70
     1
102
RTVSPost2010Prop34
280
     0
102
RTVSPost2010PropOp34
 70
     1
102
RTVSPost2010Prop35
280
     0
102
RTVSPost2010PropOp35
 70
     1
102
RTVSPost2010Prop36
280
     0
102
RTVSPost2010PropOp36
 70
     1
102
RTVSPost2010Prop37
 90
       50
102
RTVSPost2010PropOp37
 70
     1
102
RTVSPost2010Prop38
140
0.0
102
RTVSPost2010PropOp38
 70
     1
102
RTVSPost2010Prop39
140
1.0
102
RTVSPost2010PropOp39
 70
     1
102
RTVSPost2010Prop40
 90
        0
102
RTVSPost2010PropOp40
 70
     1
102
RTVSPost2010Prop41ColorIndex
 90
       18
102
RTVSPost2010Prop41ColorRGB
 90
        0
102
RTVSPost2010PropOp41
 70
     1
102
RTVSPost2010Prop42
 90
       50
102
RTVSPost2010PropOp42
 70
     1
102
RTVSPost2010Prop43
 90
        3
102
RTVSPost2010PropOp43
 70
     1
102
RTVSPost2010Prop44ColorIndex
 90
        5
102
RTVSPost2010Prop44ColorRGB
 90
      255
102
RTVSPost2010PropOp44
 70
     1
102
RTVSPost2010Prop45
280
     0
102
RTVSPost2010PropOp45
 70
     1
102
RTVSPost2010Prop46
 90
       50
102
RTVSPost2010PropOp46
 70
     1
102
RTVSPost2010Prop47
 90
       50
102
RTVSPost2010PropOp47
 70
     1
102
RTVSPost2010Prop48
 90
       50
102
RTVSPost2010PropOp48
 70
     1
102
RTVSPost2010Prop49
280
     0
102
RTVSPost2010PropOp49
 70
     1
102
RTVSPost2010Prop50
 90
       50
102
RTVSPost2010PropOp50
 70
     1
102
RTVSPost2010Prop51ColorIndex
 90
      256
102
RTVSPost2010Prop51ColorRGB
 90
-16777216
102
RTVSPost2010PropOp51
 70
     0
102
RTVSPost2010Prop52
140
1.0
102
RTVSPost2010PropOp52
 70
     0
102
RTVSPost2010Prop53
 90
        2
102
RTVSPost2010PropOp53
 70
     1
102
RTVSPost2010Prop54
  1
strokes_ogs.tif
102
RTVSPost2010PropOp54
 70
     1
102
RTVSPost2010Prop55
280
     0
102
RTVSPost2010PropOp55
 70
     1
102
RTVSPost2010Prop56
140
1.0
102
RTVSPost2010PropOp56
 70
     1
102
RTVSPost2010Prop57
140
1.0
102
RTVSPost2010PropOp57
 70
     1
  0
XRECORD
  5
A49
102
{ACAD_REACTORS
330
A48
102
}
330
A48
100
AcDbXrecord
280
     1
102
RTVSPost2010Prop28
280
     0
102
RTVSPost2010PropOp28
 70
     1
102
RTVSPost2010Prop29
280
     1
102
RTVSPost2010PropOp29
 70
     1
102
RTVSPost2010Prop30
280
     1
102
RTVSPost2010PropOp30
 70
     1
102
RTVSPost2010Prop31
280
     0
102
RTVSPost2010PropOp31
 70
     1
102
RTVSPost2010Prop32
280
     0
102
RTVSPost2010PropOp32
 70
     1
102
RTVSPost2010Prop33
280
     0
102
RTVSPost2010PropOp33
 70
     1
102
RTVSPost2010Prop34
280
     0
102
RTVSPost2010PropOp34
 70
     1
102
RTVSPost2010Prop35
280
     0
102
RTVSPost2010PropOp35
 70
     1
102
RTVSPost2010Prop36
280
     0
102
RTVSPost2010PropOp36
 70
     1
102
RTVSPost2010Prop37
 90
       50
102
RTVSPost2010PropOp37
 70
     1
102
RTVSPost2010Prop38
140
0.0
102
RTVSPost2010PropOp38
 70
     1
102
RTVSPost2010Prop39
140
1.0
102
RTVSPost2010PropOp39
 70
     1
102
RTVSPost2010Prop40
 90
        0
102
RTVSPost2010PropOp40
 70
     1
102
RTVSPost2010Prop41ColorIndex
 90
       18
102
RTVSPost2010Prop41ColorRGB
 90
        0
102
RTVSPost2010PropOp41
 70
     1
102
RTVSPost2010Prop42
 90
       50
102
RTVSPost2010PropOp42
 70
     1
102
RTVSPost2010Prop43
 90
        3
102
RTVSPost2010PropOp43
 70
     1
102
RTVSPost2010Prop44ColorIndex
 90
        5
102
RTVSPost2010Prop44ColorRGB
 90
      255
102
RTVSPost2010PropOp44
 70
     1
102
RTVSPost2010Prop45
280
     0
102
RTVSPost2010PropOp45
 70
     1
102
RTVSPost2010Prop46
 90
       50
102
RTVSPost2010PropOp46
 70
     1
102
RTVSPost2010Prop47
 90
       50
102
RTVSPost2010PropOp47
 70
     1
102
RTVSPost2010Prop48
 90
       50
102
RTVSPost2010PropOp48
 70
     1
102
RTVSPost2010Prop49
280
     0
102
RTVSPost2010PropOp49
 70
     1
102
RTVSPost2010Prop50
 90
       50
102
RTVSPost2010PropOp50
 70
     1
102
RTVSPost2010Prop51ColorIndex
 90
      256
102
RTVSPost2010Prop51ColorRGB
 90
-16777216
102
RTVSPost2010PropOp51
 70
     0
102
RTVSPost2010Prop52
140
1.0
102
RTVSPost2010PropOp52
 70
     0
102
RTVSPost2010Prop53
 90
        2
102
RTVSPost2010PropOp53
 70
     1
102
RTVSPost2010Prop54
  1
strokes_ogs.tif
102
RTVSPost2010PropOp54
 70
     1
102
RTVSPost2010Prop55
280
     0
102
RTVSPost2010PropOp55
 70
     1
102
RTVSPost2010Prop56
140
1.0
102
RTVSPost2010PropOp56
 70
     1
102
RTVSPost2010Prop57
140
1.0
102
RTVSPost2010PropOp57
 70
     1
  0
XRECORD
  5
A57
102
{ACAD_REACTORS
330
A56
102
}
330
A56
100
AcDbXrecord
280
     1
102
RTVSPost2010Prop28
280
     0
102
RTVSPost2010PropOp28
 70
     1
102
RTVSPost2010Prop29
280
     1
102
RTVSPost2010PropOp29
 70
     1
102
RTVSPost2010Prop30
280
     1
102
RTVSPost2010PropOp30
 70
     1
102
RTVSPost2010Prop31
280
     0
102
RTVSPost2010PropOp31
 70
     1
102
RTVSPost2010Prop32
280
     0
102
RTVSPost2010PropOp32
 70
     1
102
RTVSPost2010Prop33
280
     0
102
RTVSPost2010PropOp33
 70
     1
102
RTVSPost2010Prop34
280
     0
102
RTVSPost2010PropOp34
 70
     1
102
RTVSPost2010Prop35
280
     0
102
RTVSPost2010PropOp35
 70
     1
102
RTVSPost2010Prop36
280
     0
102
RTVSPost2010PropOp36
 70
     1
102
RTVSPost2010Prop37
 90
       50
102
RTVSPost2010PropOp37
 70
     1
102
RTVSPost2010Prop38
140
0.0
102
RTVSPost2010PropOp38
 70
     1
102
RTVSPost2010Prop39
140
1.0
102
RTVSPost2010PropOp39
 70
     1
102
RTVSPost2010Prop40
 90
        0
102
RTVSPost2010PropOp40
 70
     1
102
RTVSPost2010Prop41ColorIndex
 90
       18
102
RTVSPost2010Prop41ColorRGB
 90
        0
102
RTVSPost2010PropOp41
 70
     1
102
RTVSPost2010Prop42
 90
       50
102
RTVSPost2010PropOp42
 70
     1
102
RTVSPost2010Prop43
 90
        3
102
RTVSPost2010PropOp43
 70
     1
102
RTVSPost2010Prop44ColorIndex
 90
        5
102
RTVSPost2010Prop44ColorRGB
 90
      255
102
RTVSPost2010PropOp44
 70
     1
102
RTVSPost2010Prop45
280
     0
102
RTVSPost2010PropOp45
 70
     1
102
RTVSPost2010Prop46
 90
       50
102
RTVSPost2010PropOp46
 70
     1
102
RTVSPost2010Prop47
 90
       50
102
RTVSPost2010PropOp47
 70
     1
102
RTVSPost2010Prop48
 90
       50
102
RTVSPost2010PropOp48
 70
     1
102
RTVSPost2010Prop49
280
     0
102
RTVSPost2010PropOp49
 70
     1
102
RTVSPost2010Prop50
 90
       50
102
RTVSPost2010PropOp50
 70
     1
102
RTVSPost2010Prop51ColorIndex
 90
      256
102
RTVSPost2010Prop51ColorRGB
 90
-16777216
102
RTVSPost2010PropOp51
 70
     0
102
RTVSPost2010Prop52
140
1.0
102
RTVSPost2010PropOp52
 70
     0
102
RTVSPost2010Prop53
 90
        2
102
RTVSPost2010PropOp53
 70
     1
102
RTVSPost2010Prop54
  1
strokes_ogs.tif
102
RTVSPost2010PropOp54
 70
     1
102
RTVSPost2010Prop55
280
     0
102
RTVSPost2010PropOp55
 70
     1
102
RTVSPost2010Prop56
140
1.0
102
RTVSPost2010PropOp56
 70
     1
102
RTVSPost2010Prop57
140
1.0
102
RTVSPost2010PropOp57
 70
     1
  0
XRECORD
  5
A5F
102
{ACAD_REACTORS
330
A5E
102
}
330
A5E
100
AcDbXrecord
280
     1
102
RTVSPost2010Prop28
280
     0
102
RTVSPost2010PropOp28
 70
     1
102
RTVSPost2010Prop29
280
     1
102
RTVSPost2010PropOp29
 70
     1
102
RTVSPost2010Prop30
280
     1
102
RTVSPost2010PropOp30
 70
     1
102
RTVSPost2010Prop31
280
     0
102
RTVSPost2010PropOp31
 70
     1
102
RTVSPost2010Prop32
280
     0
102
RTVSPost2010PropOp32
 70
     1
102
RTVSPost2010Prop33
280
     0
102
RTVSPost2010PropOp33
 70
     1
102
RTVSPost2010Prop34
280
     0
102
RTVSPost2010PropOp34
 70
     1
102
RTVSPost2010Prop35
280
     0
102
RTVSPost2010PropOp35
 70
     1
102
RTVSPost2010Prop36
280
     0
102
RTVSPost2010PropOp36
 70
     1
102
RTVSPost2010Prop37
 90
       50
102
RTVSPost2010PropOp37
 70
     1
102
RTVSPost2010Prop38
140
0.0
102
RTVSPost2010PropOp38
 70
     1
102
RTVSPost2010Prop39
140
1.0
102
RTVSPost2010PropOp39
 70
     1
102
RTVSPost2010Prop40
 90
        0
102
RTVSPost2010PropOp40
 70
     1
102
RTVSPost2010Prop41ColorIndex
 90
       18
102
RTVSPost2010Prop41ColorRGB
 90
        0
102
RTVSPost2010PropOp41
 70
     1
102
RTVSPost2010Prop42
 90
       50
102
RTVSPost2010PropOp42
 70
     1
102
RTVSPost2010Prop43
 90
        3
102
RTVSPost2010PropOp43
 70
     1
102
RTVSPost2010Prop44ColorIndex
 90
        5
102
RTVSPost2010Prop44ColorRGB
 90
      255
102
RTVSPost2010PropOp44
 70
     1
102
RTVSPost2010Prop45
280
     0
102
RTVSPost2010PropOp45
 70
     1
102
RTVSPost2010Prop46
 90
       50
102
RTVSPost2010PropOp46
 70
     1
102
RTVSPost2010Prop47
 90
       50
102
RTVSPost2010PropOp47
 70
     1
102
RTVSPost2010Prop48
 90
       50
102
RTVSPost2010PropOp48
 70
     1
102
RTVSPost2010Prop49
280
     0
102
RTVSPost2010PropOp49
 70
     1
102
RTVSPost2010Prop50
 90
       50
102
RTVSPost2010PropOp50
 70
     1
102
RTVSPost2010Prop51ColorIndex
 90
      256
102
RTVSPost2010Prop51ColorRGB
 90
-16777216
102
RTVSPost2010PropOp51
 70
     0
102
RTVSPost2010Prop52
140
1.0
102
RTVSPost2010PropOp52
 70
     0
102
RTVSPost2010Prop53
 90
        2
102
RTVSPost2010PropOp53
 70
     1
102
RTVSPost2010Prop54
  1
strokes_ogs.tif
102
RTVSPost2010PropOp54
 70
     1
102
RTVSPost2010Prop55
280
     0
102
RTVSPost2010PropOp55
 70
     1
102
RTVSPost2010Prop56
140
1.0
102
RTVSPost2010PropOp56
 70
     1
102
RTVSPost2010Prop57
140
1.0
102
RTVSPost2010PropOp57
 70
     1
  0
XRECORD
  5
A51
102
{ACAD_REACTORS
330
A50
102
}
330
A50
100
AcDbXrecord
280
     1
102
RTVSPost2010Prop28
280
     0
102
RTVSPost2010PropOp28
 70
     1
102
RTVSPost2010Prop29
280
     1
102
RTVSPost2010PropOp29
 70
     1
102
RTVSPost2010Prop30
280
     1
102
RTVSPost2010PropOp30
 70
     1
102
RTVSPost2010Prop31
280
     0
102
RTVSPost2010PropOp31
 70
     1
102
RTVSPost2010Prop32
280
     0
102
RTVSPost2010PropOp32
 70
     1
102
RTVSPost2010Prop33
280
     0
102
RTVSPost2010PropOp33
 70
     1
102
RTVSPost2010Prop34
280
     0
102
RTVSPost2010PropOp34
 70
     1
102
RTVSPost2010Prop35
280
     0
102
RTVSPost2010PropOp35
 70
     1
102
RTVSPost2010Prop36
280
     0
102
RTVSPost2010PropOp36
 70
     1
102
RTVSPost2010Prop37
 90
       50
102
RTVSPost2010PropOp37
 70
     1
102
RTVSPost2010Prop38
140
0.0
102
RTVSPost2010PropOp38
 70
     1
102
RTVSPost2010Prop39
140
1.0
102
RTVSPost2010PropOp39
 70
     1
102
RTVSPost2010Prop40
 90
        0
102
RTVSPost2010PropOp40
 70
     1
102
RTVSPost2010Prop41ColorIndex
 90
       18
102
RTVSPost2010Prop41ColorRGB
 90
        0
102
RTVSPost2010PropOp41
 70
     1
102
RTVSPost2010Prop42
 90
       50
102
RTVSPost2010PropOp42
 70
     1
102
RTVSPost2010Prop43
 90
        3
102
RTVSPost2010PropOp43
 70
     1
102
RTVSPost2010Prop44ColorIndex
 90
        5
102
RTVSPost2010Prop44ColorRGB
 90
      255
102
RTVSPost2010PropOp44
 70
     1
102
RTVSPost2010Prop45
280
     0
102
RTVSPost2010PropOp45
 70
     1
102
RTVSPost2010Prop46
 90
       50
102
RTVSPost2010PropOp46
 70
     1
102
RTVSPost2010Prop47
 90
       50
102
RTVSPost2010PropOp47
 70
     1
102
RTVSPost2010Prop48
 90
       50
102
RTVSPost2010PropOp48
 70
     1
102
RTVSPost2010Prop49
280
     0
102
RTVSPost2010PropOp49
 70
     1
102
RTVSPost2010Prop50
 90
       50
102
RTVSPost2010PropOp50
 70
     1
102
RTVSPost2010Prop51ColorIndex
 90
      256
102
RTVSPost2010Prop51ColorRGB
 90
-16777216
102
RTVSPost2010PropOp51
 70
     0
102
RTVSPost2010Prop52
140
1.0
102
RTVSPost2010PropOp52
 70
     0
102
RTVSPost2010Prop53
 90
        2
102
RTVSPost2010PropOp53
 70
     1
102
RTVSPost2010Prop54
  1
strokes_ogs.tif
102
RTVSPost2010PropOp54
 70
     1
102
RTVSPost2010Prop55
280
     0
102
RTVSPost2010PropOp55
 70
     1
102
RTVSPost2010Prop56
140
1.0
102
RTVSPost2010PropOp56
 70
     1
102
RTVSPost2010Prop57
140
1.0
102
RTVSPost2010PropOp57
 70
     1
  0
XRECORD
  5
A55
102
{ACAD_REACTORS
330
A54
102
}
330
A54
100
AcDbXrecord
280
     1
102
RTVSPost2010Prop28
280
     0
102
RTVSPost2010PropOp28
 70
     1
102
RTVSPost2010Prop29
280
     1
102
RTVSPost2010PropOp29
 70
     1
102
RTVSPost2010Prop30
280
     1
102
RTVSPost2010PropOp30
 70
     1
102
RTVSPost2010Prop31
280
     0
102
RTVSPost2010PropOp31
 70
     1
102
RTVSPost2010Prop32
280
     0
102
RTVSPost2010PropOp32
 70
     1
102
RTVSPost2010Prop33
280
     0
102
RTVSPost2010PropOp33
 70
     1
102
RTVSPost2010Prop34
280
     0
102
RTVSPost2010PropOp34
 70
     1
102
RTVSPost2010Prop35
280
     0
102
RTVSPost2010PropOp35
 70
     1
102
RTVSPost2010Prop36
280
     0
102
RTVSPost2010PropOp36
 70
     1
102
RTVSPost2010Prop37
 90
       50
102
RTVSPost2010PropOp37
 70
     1
102
RTVSPost2010Prop38
140
0.0
102
RTVSPost2010PropOp38
 70
     1
102
RTVSPost2010Prop39
140
1.0
102
RTVSPost2010PropOp39
 70
     1
102
RTVSPost2010Prop40
 90
        0
102
RTVSPost2010PropOp40
 70
     1
102
RTVSPost2010Prop41ColorIndex
 90
       18
102
RTVSPost2010Prop41ColorRGB
 90
        0
102
RTVSPost2010PropOp41
 70
     1
102
RTVSPost2010Prop42
 90
       50
102
RTVSPost2010PropOp42
 70
     1
102
RTVSPost2010Prop43
 90
        3
102
RTVSPost2010PropOp43
 70
     1
102
RTVSPost2010Prop44ColorIndex
 90
        5
102
RTVSPost2010Prop44ColorRGB
 90
      255
102
RTVSPost2010PropOp44
 70
     1
102
RTVSPost2010Prop45
280
     0
102
RTVSPost2010PropOp45
 70
     1
102
RTVSPost2010Prop46
 90
       50
102
RTVSPost2010PropOp46
 70
     1
102
RTVSPost2010Prop47
 90
       50
102
RTVSPost2010PropOp47
 70
     1
102
RTVSPost2010Prop48
 90
       50
102
RTVSPost2010PropOp48
 70
     1
102
RTVSPost2010Prop49
280
     0
102
RTVSPost2010PropOp49
 70
     1
102
RTVSPost2010Prop50
 90
       50
102
RTVSPost2010PropOp50
 70
     1
102
RTVSPost2010Prop51ColorIndex
 90
      256
102
RTVSPost2010Prop51ColorRGB
 90
-16777216
102
RTVSPost2010PropOp51
 70
     0
102
RTVSPost2010Prop52
140
1.0
102
RTVSPost2010PropOp52
 70
     0
102
RTVSPost2010Prop53
 90
        2
102
RTVSPost2010PropOp53
 70
     1
102
RTVSPost2010Prop54
  1
strokes_ogs.tif
102
RTVSPost2010PropOp54
 70
     1
102
RTVSPost2010Prop55
280
     0
102
RTVSPost2010PropOp55
 70
     1
102
RTVSPost2010Prop56
140
1.0
102
RTVSPost2010PropOp56
 70
     1
102
RTVSPost2010Prop57
140
1.0
102
RTVSPost2010PropOp57
 70
     1
  0
XRECORD
  5
A6F
102
{ACAD_REACTORS
330
A6E
102
}
330
A6E
100
AcDbXrecord
280
     1
102
RTVSPost2010Prop28
280
     0
102
RTVSPost2010PropOp28
 70
     0
102
RTVSPost2010Prop29
280
     1
102
RTVSPost2010PropOp29
 70
     0
102
RTVSPost2010Prop30
280
     1
102
RTVSPost2010PropOp30
 70
     0
102
RTVSPost2010Prop31
280
     0
102
RTVSPost2010PropOp31
 70
     0
102
RTVSPost2010Prop32
280
     0
102
RTVSPost2010PropOp32
 70
     0
102
RTVSPost2010Prop33
280
     0
102
RTVSPost2010PropOp33
 70
     0
102
RTVSPost2010Prop34
280
     0
102
RTVSPost2010PropOp34
 70
     0
102
RTVSPost2010Prop35
280
     0
102
RTVSPost2010PropOp35
 70
     0
102
RTVSPost2010Prop36
280
     0
102
RTVSPost2010PropOp36
 70
     0
102
RTVSPost2010Prop37
 90
       50
102
RTVSPost2010PropOp37
 70
     0
102
RTVSPost2010Prop38
140
0.0
102
RTVSPost2010PropOp38
 70
     0
102
RTVSPost2010Prop39
140
1.0
102
RTVSPost2010PropOp39
 70
     0
102
RTVSPost2010Prop40
 90
        0
102
RTVSPost2010PropOp40
 70
     0
102
RTVSPost2010Prop41ColorIndex
 90
       18
102
RTVSPost2010Prop41ColorRGB
 90
        0
102
RTVSPost2010PropOp41
 70
     0
102
RTVSPost2010Prop42
 90
       50
102
RTVSPost2010PropOp42
 70
     0
102
RTVSPost2010Prop43
 90
        3
102
RTVSPost2010PropOp43
 70
     0
102
RTVSPost2010Prop44ColorIndex
 90
        5
102
RTVSPost2010Prop44ColorRGB
 90
      255
102
RTVSPost2010PropOp44
 70
     0
102
RTVSPost2010Prop45
280
     0
102
RTVSPost2010PropOp45
 70
     0
102
RTVSPost2010Prop46
 90
       50
102
RTVSPost2010PropOp46
 70
     0
102
RTVSPost2010Prop47
 90
       50
102
RTVSPost2010PropOp47
 70
     0
102
RTVSPost2010Prop48
 90
       50
102
RTVSPost2010PropOp48
 70
     0
102
RTVSPost2010Prop49
280
     0
102
RTVSPost2010PropOp49
 70
     0
102
RTVSPost2010Prop50
 90
       50
102
RTVSPost2010PropOp50
 70
     0
102
RTVSPost2010Prop51ColorIndex
 90
      256
102
RTVSPost2010Prop51ColorRGB
 90
-16777216
102
RTVSPost2010PropOp51
 70
     0
102
RTVSPost2010Prop52
140
1.0
102
RTVSPost2010PropOp52
 70
     0
102
RTVSPost2010Prop53
 90
        2
102
RTVSPost2010PropOp53
 70
     0
102
RTVSPost2010Prop54
  1
strokes_ogs.tif
102
RTVSPost2010PropOp54
 70
     0
102
RTVSPost2010Prop55
280
     0
102
RTVSPost2010PropOp55
 70
     0
102
RTVSPost2010Prop56
140
1.0
102
RTVSPost2010PropOp56
 70
     0
102
RTVSPost2010Prop57
140
1.0
102
RTVSPost2010PropOp57
 70
     0
  0
XRECORD
  5
A5D
102
{ACAD_REACTORS
330
A5C
102
}
330
A5C
100
AcDbXrecord
280
     1
102
RTVSPost2010Prop28
280
     0
102
RTVSPost2010PropOp28
 70
     1
102
RTVSPost2010Prop29
280
     1
102
RTVSPost2010PropOp29
 70
     1
102
RTVSPost2010Prop30
280
     1
102
RTVSPost2010PropOp30
 70
     1
102
RTVSPost2010Prop31
280
     0
102
RTVSPost2010PropOp31
 70
     1
102
RTVSPost2010Prop32
280
     0
102
RTVSPost2010PropOp32
 70
     1
102
RTVSPost2010Prop33
280
     0
102
RTVSPost2010PropOp33
 70
     1
102
RTVSPost2010Prop34
280
     0
102
RTVSPost2010PropOp34
 70
     1
102
RTVSPost2010Prop35
280
     0
102
RTVSPost2010PropOp35
 70
     1
102
RTVSPost2010Prop36
280
     0
102
RTVSPost2010PropOp36
 70
     1
102
RTVSPost2010Prop37
 90
       50
102
RTVSPost2010PropOp37
 70
     1
102
RTVSPost2010Prop38
140
0.0
102
RTVSPost2010PropOp38
 70
     1
102
RTVSPost2010Prop39
140
1.0
102
RTVSPost2010PropOp39
 70
     1
102
RTVSPost2010Prop40
 90
        0
102
RTVSPost2010PropOp40
 70
     1
102
RTVSPost2010Prop41ColorIndex
 90
       18
102
RTVSPost2010Prop41ColorRGB
 90
        0
102
RTVSPost2010PropOp41
 70
     1
102
RTVSPost2010Prop42
 90
       50
102
RTVSPost2010PropOp42
 70
     1
102
RTVSPost2010Prop43
 90
        3
102
RTVSPost2010PropOp43
 70
     1
102
RTVSPost2010Prop44ColorIndex
 90
        5
102
RTVSPost2010Prop44ColorRGB
 90
      255
102
RTVSPost2010PropOp44
 70
     1
102
RTVSPost2010Prop45
280
     0
102
RTVSPost2010PropOp45
 70
     1
102
RTVSPost2010Prop46
 90
       50
102
RTVSPost2010PropOp46
 70
     1
102
RTVSPost2010Prop47
 90
       50
102
RTVSPost2010PropOp47
 70
     1
102
RTVSPost2010Prop48
 90
       50
102
RTVSPost2010PropOp48
 70
     1
102
RTVSPost2010Prop49
280
     0
102
RTVSPost2010PropOp49
 70
     1
102
RTVSPost2010Prop50
 90
       50
102
RTVSPost2010PropOp50
 70
     1
102
RTVSPost2010Prop51ColorIndex
 90
      256
102
RTVSPost2010Prop51ColorRGB
 90
-16777216
102
RTVSPost2010PropOp51
 70
     0
102
RTVSPost2010Prop52
140
1.0
102
RTVSPost2010PropOp52
 70
     0
102
RTVSPost2010Prop53
 90
        2
102
RTVSPost2010PropOp53
 70
     1
102
RTVSPost2010Prop54
  1
strokes_ogs.tif
102
RTVSPost2010PropOp54
 70
     1
102
RTVSPost2010Prop55
280
     0
102
RTVSPost2010PropOp55
 70
     1
102
RTVSPost2010Prop56
140
1.0
102
RTVSPost2010PropOp56
 70
     1
102
RTVSPost2010Prop57
140
1.0
102
RTVSPost2010PropOp57
 70
     1
  0
XRECORD
  5
A41
102
{ACAD_REACTORS
330
A40
102
}
330
A40
100
AcDbXrecord
280
     1
102
RTVSPost2010Prop28
280
     0
102
RTVSPost2010PropOp28
 70
     1
102
RTVSPost2010Prop29
280
     1
102
RTVSPost2010PropOp29
 70
     1
102
RTVSPost2010Prop30
280
     1
102
RTVSPost2010PropOp30
 70
     1
102
RTVSPost2010Prop31
280
     0
102
RTVSPost2010PropOp31
 70
     1
102
RTVSPost2010Prop32
280
     0
102
RTVSPost2010PropOp32
 70
     1
102
RTVSPost2010Prop33
280
     0
102
RTVSPost2010PropOp33
 70
     1
102
RTVSPost2010Prop34
280
     0
102
RTVSPost2010PropOp34
 70
     1
102
RTVSPost2010Prop35
280
     0
102
RTVSPost2010PropOp35
 70
     1
102
RTVSPost2010Prop36
280
     0
102
RTVSPost2010PropOp36
 70
     1
102
RTVSPost2010Prop37
 90
       50
102
RTVSPost2010PropOp37
 70
     1
102
RTVSPost2010Prop38
140
0.0
102
RTVSPost2010PropOp38
 70
     1
102
RTVSPost2010Prop39
140
1.0
102
RTVSPost2010PropOp39
 70
     1
102
RTVSPost2010Prop40
 90
        0
102
RTVSPost2010PropOp40
 70
     1
102
RTVSPost2010Prop41ColorIndex
 90
       18
102
RTVSPost2010Prop41ColorRGB
 90
        0
102
RTVSPost2010PropOp41
 70
     1
102
RTVSPost2010Prop42
 90
       50
102
RTVSPost2010PropOp42
 70
     1
102
RTVSPost2010Prop43
 90
        3
102
RTVSPost2010PropOp43
 70
     1
102
RTVSPost2010Prop44ColorIndex
 90
        5
102
RTVSPost2010Prop44ColorRGB
 90
      255
102
RTVSPost2010PropOp44
 70
     1
102
RTVSPost2010Prop45
280
     0
102
RTVSPost2010PropOp45
 70
     1
102
RTVSPost2010Prop46
 90
       50
102
RTVSPost2010PropOp46
 70
     1
102
RTVSPost2010Prop47
 90
       50
102
RTVSPost2010PropOp47
 70
     1
102
RTVSPost2010Prop48
 90
       50
102
RTVSPost2010PropOp48
 70
     1
102
RTVSPost2010Prop49
280
     0
102
RTVSPost2010PropOp49
 70
     1
102
RTVSPost2010Prop50
 90
       50
102
RTVSPost2010PropOp50
 70
     1
102
RTVSPost2010Prop51ColorIndex
 90
      256
102
RTVSPost2010Prop51ColorRGB
 90
-16777216
102
RTVSPost2010PropOp51
 70
     0
102
RTVSPost2010Prop52
140
1.0
102
RTVSPost2010PropOp52
 70
     0
102
RTVSPost2010Prop53
 90
        2
102
RTVSPost2010PropOp53
 70
     1
102
RTVSPost2010Prop54
  1
strokes_ogs.tif
102
RTVSPost2010PropOp54
 70
     1
102
RTVSPost2010Prop55
280
     0
102
RTVSPost2010PropOp55
 70
     1
102
RTVSPost2010Prop56
140
1.0
102
RTVSPost2010PropOp56
 70
     1
102
RTVSPost2010Prop57
140
1.0
102
RTVSPost2010PropOp57
 70
     1
  0
XRECORD
  5
A43
102
{ACAD_REACTORS
330
A42
102
}
330
A42
100
AcDbXrecord
280
     1
102
RTVSPost2010Prop28
280
     0
102
RTVSPost2010PropOp28
 70
     1
102
RTVSPost2010Prop29
280
     1
102
RTVSPost2010PropOp29
 70
     1
102
RTVSPost2010Prop30
280
     1
102
RTVSPost2010PropOp30
 70
     1
102
RTVSPost2010Prop31
280
     0
102
RTVSPost2010PropOp31
 70
     1
102
RTVSPost2010Prop32
280
     0
102
RTVSPost2010PropOp32
 70
     1
102
RTVSPost2010Prop33
280
     0
102
RTVSPost2010PropOp33
 70
     1
102
RTVSPost2010Prop34
280
     0
102
RTVSPost2010PropOp34
 70
     1
102
RTVSPost2010Prop35
280
     0
102
RTVSPost2010PropOp35
 70
     1
102
RTVSPost2010Prop36
280
     0
102
RTVSPost2010PropOp36
 70
     1
102
RTVSPost2010Prop37
 90
       50
102
RTVSPost2010PropOp37
 70
     1
102
RTVSPost2010Prop38
140
0.0
102
RTVSPost2010PropOp38
 70
     1
102
RTVSPost2010Prop39
140
1.0
102
RTVSPost2010PropOp39
 70
     1
102
RTVSPost2010Prop40
 90
        0
102
RTVSPost2010PropOp40
 70
     1
102
RTVSPost2010Prop41ColorIndex
 90
       18
102
RTVSPost2010Prop41ColorRGB
 90
        0
102
RTVSPost2010PropOp41
 70
     1
102
RTVSPost2010Prop42
 90
       50
102
RTVSPost2010PropOp42
 70
     1
102
RTVSPost2010Prop43
 90
        3
102
RTVSPost2010PropOp43
 70
     1
102
RTVSPost2010Prop44ColorIndex
 90
        5
102
RTVSPost2010Prop44ColorRGB
 90
      255
102
RTVSPost2010PropOp44
 70
     1
102
RTVSPost2010Prop45
280
     0
102
RTVSPost2010PropOp45
 70
     1
102
RTVSPost2010Prop46
 90
       50
102
RTVSPost2010PropOp46
 70
     1
102
RTVSPost2010Prop47
 90
       50
102
RTVSPost2010PropOp47
 70
     1
102
RTVSPost2010Prop48
 90
       50
102
RTVSPost2010PropOp48
 70
     1
102
RTVSPost2010Prop49
280
     0
102
RTVSPost2010PropOp49
 70
     1
102
RTVSPost2010Prop50
 90
       50
102
RTVSPost2010PropOp50
 70
     1
102
RTVSPost2010Prop51ColorIndex
 90
      256
102
RTVSPost2010Prop51ColorRGB
 90
-16777216
102
RTVSPost2010PropOp51
 70
     0
102
RTVSPost2010Prop52
140
1.0
102
RTVSPost2010PropOp52
 70
     0
102
RTVSPost2010Prop53
 90
        2
102
RTVSPost2010PropOp53
 70
     1
102
RTVSPost2010Prop54
  1
strokes_ogs.tif
102
RTVSPost2010PropOp54
 70
     1
102
RTVSPost2010Prop55
280
     0
102
RTVSPost2010PropOp55
 70
     1
102
RTVSPost2010Prop56
140
1.0
102
RTVSPost2010PropOp56
 70
     1
102
RTVSPost2010Prop57
140
1.0
102
RTVSPost2010PropOp57
 70
     1
  0
XRECORD
  5
A45
102
{ACAD_REACTORS
330
A44
102
}
330
A44
100
AcDbXrecord
280
     1
102
RTVSPost2010Prop28
280
     0
102
RTVSPost2010PropOp28
 70
     1
102
RTVSPost2010Prop29
280
     1
102
RTVSPost2010PropOp29
 70
     1
102
RTVSPost2010Prop30
280
     1
102
RTVSPost2010PropOp30
 70
     1
102
RTVSPost2010Prop31
280
     0
102
RTVSPost2010PropOp31
 70
     1
102
RTVSPost2010Prop32
280
     0
102
RTVSPost2010PropOp32
 70
     1
102
RTVSPost2010Prop33
280
     0
102
RTVSPost2010PropOp33
 70
     1
102
RTVSPost2010Prop34
280
     0
102
RTVSPost2010PropOp34
 70
     1
102
RTVSPost2010Prop35
280
     0
102
RTVSPost2010PropOp35
 70
     1
102
RTVSPost2010Prop36
280
     0
102
RTVSPost2010PropOp36
 70
     1
102
RTVSPost2010Prop37
 90
       50
102
RTVSPost2010PropOp37
 70
     1
102
RTVSPost2010Prop38
140
0.0
102
RTVSPost2010PropOp38
 70
     1
102
RTVSPost2010Prop39
140
1.0
102
RTVSPost2010PropOp39
 70
     1
102
RTVSPost2010Prop40
 90
        0
102
RTVSPost2010PropOp40
 70
     1
102
RTVSPost2010Prop41ColorIndex
 90
       18
102
RTVSPost2010Prop41ColorRGB
 90
        0
102
RTVSPost2010PropOp41
 70
     1
102
RTVSPost2010Prop42
 90
       50
102
RTVSPost2010PropOp42
 70
     1
102
RTVSPost2010Prop43
 90
        3
102
RTVSPost2010PropOp43
 70
     1
102
RTVSPost2010Prop44ColorIndex
 90
        5
102
RTVSPost2010Prop44ColorRGB
 90
      255
102
RTVSPost2010PropOp44
 70
     1
102
RTVSPost2010Prop45
280
     0
102
RTVSPost2010PropOp45
 70
     1
102
RTVSPost2010Prop46
 90
       50
102
RTVSPost2010PropOp46
 70
     1
102
RTVSPost2010Prop47
 90
       50
102
RTVSPost2010PropOp47
 70
     1
102
RTVSPost2010Prop48
 90
       50
102
RTVSPost2010PropOp48
 70
     1
102
RTVSPost2010Prop49
280
     0
102
RTVSPost2010PropOp49
 70
     1
102
RTVSPost2010Prop50
 90
       50
102
RTVSPost2010PropOp50
 70
     1
102
RTVSPost2010Prop51ColorIndex
 90
      256
102
RTVSPost2010Prop51ColorRGB
 90
-16777216
102
RTVSPost2010PropOp51
 70
     0
102
RTVSPost2010Prop52
140
1.0
102
RTVSPost2010PropOp52
 70
     0
102
RTVSPost2010Prop53
 90
        2
102
RTVSPost2010PropOp53
 70
     1
102
RTVSPost2010Prop54
  1
strokes_ogs.tif
102
RTVSPost2010PropOp54
 70
     1
102
RTVSPost2010Prop55
280
     0
102
RTVSPost2010PropOp55
 70
     1
102
RTVSPost2010Prop56
140
1.0
102
RTVSPost2010PropOp56
 70
     1
102
RTVSPost2010Prop57
140
1.0
102
RTVSPost2010PropOp57
 70
     1
  0
XRECORD
  5
A47
102
{ACAD_REACTORS
330
A46
102
}
330
A46
100
AcDbXrecord
280
     1
102
RTVSPost2010Prop28
280
     0
102
RTVSPost2010PropOp28
 70
     1
102
RTVSPost2010Prop29
280
     1
102
RTVSPost2010PropOp29
 70
     1
102
RTVSPost2010Prop30
280
     1
102
RTVSPost2010PropOp30
 70
     1
102
RTVSPost2010Prop31
280
     0
102
RTVSPost2010PropOp31
 70
     1
102
RTVSPost2010Prop32
280
     0
102
RTVSPost2010PropOp32
 70
     1
102
RTVSPost2010Prop33
280
     0
102
RTVSPost2010PropOp33
 70
     1
102
RTVSPost2010Prop34
280
     0
102
RTVSPost2010PropOp34
 70
     1
102
RTVSPost2010Prop35
280
     0
102
RTVSPost2010PropOp35
 70
     1
102
RTVSPost2010Prop36
280
     0
102
RTVSPost2010PropOp36
 70
     1
102
RTVSPost2010Prop37
 90
       50
102
RTVSPost2010PropOp37
 70
     1
102
RTVSPost2010Prop38
140
0.0
102
RTVSPost2010PropOp38
 70
     1
102
RTVSPost2010Prop39
140
1.0
102
RTVSPost2010PropOp39
 70
     1
102
RTVSPost2010Prop40
 90
        0
102
RTVSPost2010PropOp40
 70
     1
102
RTVSPost2010Prop41ColorIndex
 90
       18
102
RTVSPost2010Prop41ColorRGB
 90
        0
102
RTVSPost2010PropOp41
 70
     1
102
RTVSPost2010Prop42
 90
       50
102
RTVSPost2010PropOp42
 70
     1
102
RTVSPost2010Prop43
 90
        3
102
RTVSPost2010PropOp43
 70
     1
102
RTVSPost2010Prop44ColorIndex
 90
        5
102
RTVSPost2010Prop44ColorRGB
 90
      255
102
RTVSPost2010PropOp44
 70
     1
102
RTVSPost2010Prop45
280
     0
102
RTVSPost2010PropOp45
 70
     1
102
RTVSPost2010Prop46
 90
       50
102
RTVSPost2010PropOp46
 70
     1
102
RTVSPost2010Prop47
 90
       50
102
RTVSPost2010PropOp47
 70
     1
102
RTVSPost2010Prop48
 90
       50
102
RTVSPost2010PropOp48
 70
     1
102
RTVSPost2010Prop49
280
     0
102
RTVSPost2010PropOp49
 70
     1
102
RTVSPost2010Prop50
 90
       50
102
RTVSPost2010PropOp50
 70
     1
102
RTVSPost2010Prop51ColorIndex
 90
      256
102
RTVSPost2010Prop51ColorRGB
 90
-16777216
102
RTVSPost2010PropOp51
 70
     0
102
RTVSPost2010Prop52
140
1.0
102
RTVSPost2010PropOp52
 70
     0
102
RTVSPost2010Prop53
 90
        2
102
RTVSPost2010PropOp53
 70
     1
102
RTVSPost2010Prop54
  1
strokes_ogs.tif
102
RTVSPost2010PropOp54
 70
     1
102
RTVSPost2010Prop55
280
     0
102
RTVSPost2010PropOp55
 70
     1
102
RTVSPost2010Prop56
140
1.0
102
RTVSPost2010PropOp56
 70
     1
102
RTVSPost2010Prop57
140
1.0
102
RTVSPost2010PropOp57
 70
     1
  0
XRECORD
  5
A4F
102
{ACAD_REACTORS
330
A4E
102
}
330
A4E
100
AcDbXrecord
280
     1
102
RTVSPost2010Prop28
280
     0
102
RTVSPost2010PropOp28
 70
     1
102
RTVSPost2010Prop29
280
     1
102
RTVSPost2010PropOp29
 70
     1
102
RTVSPost2010Prop30
280
     1
102
RTVSPost2010PropOp30
 70
     1
102
RTVSPost2010Prop31
280
     0
102
RTVSPost2010PropOp31
 70
     1
102
RTVSPost2010Prop32
280
     0
102
RTVSPost2010PropOp32
 70
     1
102
RTVSPost2010Prop33
280
     0
102
RTVSPost2010PropOp33
 70
     1
102
RTVSPost2010Prop34
280
     0
102
RTVSPost2010PropOp34
 70
     1
102
RTVSPost2010Prop35
280
     0
102
RTVSPost2010PropOp35
 70
     1
102
RTVSPost2010Prop36
280
     0
102
RTVSPost2010PropOp36
 70
     1
102
RTVSPost2010Prop37
 90
       50
102
RTVSPost2010PropOp37
 70
     1
102
RTVSPost2010Prop38
140
0.0
102
RTVSPost2010PropOp38
 70
     1
102
RTVSPost2010Prop39
140
1.0
102
RTVSPost2010PropOp39
 70
     1
102
RTVSPost2010Prop40
 90
        0
102
RTVSPost2010PropOp40
 70
     1
102
RTVSPost2010Prop41ColorIndex
 90
       18
102
RTVSPost2010Prop41ColorRGB
 90
        0
102
RTVSPost2010PropOp41
 70
     1
102
RTVSPost2010Prop42
 90
       50
102
RTVSPost2010PropOp42
 70
     1
102
RTVSPost2010Prop43
 90
        3
102
RTVSPost2010PropOp43
 70
     1
102
RTVSPost2010Prop44ColorIndex
 90
        5
102
RTVSPost2010Prop44ColorRGB
 90
      255
102
RTVSPost2010PropOp44
 70
     1
102
RTVSPost2010Prop45
280
     0
102
RTVSPost2010PropOp45
 70
     1
102
RTVSPost2010Prop46
 90
       50
102
RTVSPost2010PropOp46
 70
     1
102
RTVSPost2010Prop47
 90
       50
102
RTVSPost2010PropOp47
 70
     1
102
RTVSPost2010Prop48
 90
       50
102
RTVSPost2010PropOp48
 70
     1
102
RTVSPost2010Prop49
280
     0
102
RTVSPost2010PropOp49
 70
     1
102
RTVSPost2010Prop50
 90
       50
102
RTVSPost2010PropOp50
 70
     1
102
RTVSPost2010Prop51ColorIndex
 90
      256
102
RTVSPost2010Prop51ColorRGB
 90
-16777216
102
RTVSPost2010PropOp51
 70
     0
102
RTVSPost2010Prop52
140
1.0
102
RTVSPost2010PropOp52
 70
     0
102
RTVSPost2010Prop53
 90
        2
102
RTVSPost2010PropOp53
 70
     1
102
RTVSPost2010Prop54
  1
strokes_ogs.tif
102
RTVSPost2010PropOp54
 70
     1
102
RTVSPost2010Prop55
280
     0
102
RTVSPost2010PropOp55
 70
     1
102
RTVSPost2010Prop56
140
1.0
102
RTVSPost2010PropOp56
 70
     1
102
RTVSPost2010Prop57
140
1.0
102
RTVSPost2010PropOp57
 70
     1
  0
XRECORD
  5
A6B
102
{ACAD_REACTORS
330
A6A
102
}
330
A6A
100
AcDbXrecord
280
     1
102
RTVSPost2010Prop28
280
     0
102
RTVSPost2010PropOp28
 70
     0
102
RTVSPost2010Prop29
280
     1
102
RTVSPost2010PropOp29
 70
     0
102
RTVSPost2010Prop30
280
     1
102
RTVSPost2010PropOp30
 70
     0
102
RTVSPost2010Prop31
280
     0
102
RTVSPost2010PropOp31
 70
     0
102
RTVSPost2010Prop32
280
     0
102
RTVSPost2010PropOp32
 70
     0
102
RTVSPost2010Prop33
280
     0
102
RTVSPost2010PropOp33
 70
     0
102
RTVSPost2010Prop34
280
     0
102
RTVSPost2010PropOp34
 70
     0
102
RTVSPost2010Prop35
280
     0
102
RTVSPost2010PropOp35
 70
     0
102
RTVSPost2010Prop36
280
     0
102
RTVSPost2010PropOp36
 70
     0
102
RTVSPost2010Prop37
 90
       50
102
RTVSPost2010PropOp37
 70
     0
102
RTVSPost2010Prop38
140
0.0
102
RTVSPost2010PropOp38
 70
     0
102
RTVSPost2010Prop39
140
1.0
102
RTVSPost2010PropOp39
 70
     0
102
RTVSPost2010Prop40
 90
        0
102
RTVSPost2010PropOp40
 70
     0
102
RTVSPost2010Prop41ColorIndex
 90
       18
102
RTVSPost2010Prop41ColorRGB
 90
        0
102
RTVSPost2010PropOp41
 70
     0
102
RTVSPost2010Prop42
 90
       50
102
RTVSPost2010PropOp42
 70
     0
102
RTVSPost2010Prop43
 90
        3
102
RTVSPost2010PropOp43
 70
     0
102
RTVSPost2010Prop44ColorIndex
 90
        5
102
RTVSPost2010Prop44ColorRGB
 90
      255
102
RTVSPost2010PropOp44
 70
     0
102
RTVSPost2010Prop45
280
     0
102
RTVSPost2010PropOp45
 70
     0
102
RTVSPost2010Prop46
 90
       50
102
RTVSPost2010PropOp46
 70
     0
102
RTVSPost2010Prop47
 90
       50
102
RTVSPost2010PropOp47
 70
     0
102
RTVSPost2010Prop48
 90
       50
102
RTVSPost2010PropOp48
 70
     0
102
RTVSPost2010Prop49
280
     0
102
RTVSPost2010PropOp49
 70
     0
102
RTVSPost2010Prop50
 90
       50
102
RTVSPost2010PropOp50
 70
     0
102
RTVSPost2010Prop51ColorIndex
 90
      256
102
RTVSPost2010Prop51ColorRGB
 90
-16777216
102
RTVSPost2010PropOp51
 70
     0
102
RTVSPost2010Prop52
140
1.0
102
RTVSPost2010PropOp52
 70
     0
102
RTVSPost2010Prop53
 90
        2
102
RTVSPost2010PropOp53
 70
     0
102
RTVSPost2010Prop54
  1
strokes_ogs.tif
102
RTVSPost2010PropOp54
 70
     0
102
RTVSPost2010Prop55
280
     0
102
RTVSPost2010PropOp55
 70
     0
102
RTVSPost2010Prop56
140
1.0
102
RTVSPost2010PropOp56
 70
     0
102
RTVSPost2010Prop57
140
1.0
102
RTVSPost2010PropOp57
 70
     0
  0
XRECORD
  5
A5B
102
{ACAD_REACTORS
330
A5A
102
}
330
A5A
100
AcDbXrecord
280
     1
102
RTVSPost2010Prop28
280
     0
102
RTVSPost2010PropOp28
 70
     1
102
RTVSPost2010Prop29
280
     1
102
RTVSPost2010PropOp29
 70
     1
102
RTVSPost2010Prop30
280
     1
102
RTVSPost2010PropOp30
 70
     1
102
RTVSPost2010Prop31
280
     0
102
RTVSPost2010PropOp31
 70
     1
102
RTVSPost2010Prop32
280
     0
102
RTVSPost2010PropOp32
 70
     1
102
RTVSPost2010Prop33
280
     0
102
RTVSPost2010PropOp33
 70
     1
102
RTVSPost2010Prop34
280
     0
102
RTVSPost2010PropOp34
 70
     1
102
RTVSPost2010Prop35
280
     0
102
RTVSPost2010PropOp35
 70
     1
102
RTVSPost2010Prop36
280
     0
102
RTVSPost2010PropOp36
 70
     1
102
RTVSPost2010Prop37
 90
       50
102
RTVSPost2010PropOp37
 70
     1
102
RTVSPost2010Prop38
140
0.0
102
RTVSPost2010PropOp38
 70
     1
102
RTVSPost2010Prop39
140
1.0
102
RTVSPost2010PropOp39
 70
     1
102
RTVSPost2010Prop40
 90
        0
102
RTVSPost2010PropOp40
 70
     1
102
RTVSPost2010Prop41ColorIndex
 90
       18
102
RTVSPost2010Prop41ColorRGB
 90
        0
102
RTVSPost2010PropOp41
 70
     1
102
RTVSPost2010Prop42
 90
       50
102
RTVSPost2010PropOp42
 70
     1
102
RTVSPost2010Prop43
 90
        3
102
RTVSPost2010PropOp43
 70
     1
102
RTVSPost2010Prop44ColorIndex
 90
        5
102
RTVSPost2010Prop44ColorRGB
 90
      255
102
RTVSPost2010PropOp44
 70
     1
102
RTVSPost2010Prop45
280
     0
102
RTVSPost2010PropOp45
 70
     1
102
RTVSPost2010Prop46
 90
       50
102
RTVSPost2010PropOp46
 70
     1
102
RTVSPost2010Prop47
 90
       50
102
RTVSPost2010PropOp47
 70
     1
102
RTVSPost2010Prop48
 90
       50
102
RTVSPost2010PropOp48
 70
     1
102
RTVSPost2010Prop49
280
     0
102
RTVSPost2010PropOp49
 70
     1
102
RTVSPost2010Prop50
 90
       50
102
RTVSPost2010PropOp50
 70
     1
102
RTVSPost2010Prop51ColorIndex
 90
      256
102
RTVSPost2010Prop51ColorRGB
 90
-16777216
102
RTVSPost2010PropOp51
 70
     0
102
RTVSPost2010Prop52
140
1.0
102
RTVSPost2010PropOp52
 70
     0
102
RTVSPost2010Prop53
 90
        2
102
RTVSPost2010PropOp53
 70
     1
102
RTVSPost2010Prop54
  1
strokes_ogs.tif
102
RTVSPost2010PropOp54
 70
     1
102
RTVSPost2010Prop55
280
     0
102
RTVSPost2010PropOp55
 70
     1
102
RTVSPost2010Prop56
140
1.0
102
RTVSPost2010PropOp56
 70
     1
102
RTVSPost2010Prop57
140
1.0
102
RTVSPost2010PropOp57
 70
     1
  0
XRECORD
  5
A6D
102
{ACAD_REACTORS
330
A6C
102
}
330
A6C
100
AcDbXrecord
280
     1
102
RTVSPost2010Prop28
280
     0
102
RTVSPost2010PropOp28
 70
     0
102
RTVSPost2010Prop29
280
     1
102
RTVSPost2010PropOp29
 70
     0
102
RTVSPost2010Prop30
280
     1
102
RTVSPost2010PropOp30
 70
     0
102
RTVSPost2010Prop31
280
     0
102
RTVSPost2010PropOp31
 70
     0
102
RTVSPost2010Prop32
280
     0
102
RTVSPost2010PropOp32
 70
     0
102
RTVSPost2010Prop33
280
     0
102
RTVSPost2010PropOp33
 70
     0
102
RTVSPost2010Prop34
280
     0
102
RTVSPost2010PropOp34
 70
     0
102
RTVSPost2010Prop35
280
     0
102
RTVSPost2010PropOp35
 70
     0
102
RTVSPost2010Prop36
280
     0
102
RTVSPost2010PropOp36
 70
     0
102
RTVSPost2010Prop37
 90
       50
102
RTVSPost2010PropOp37
 70
     0
102
RTVSPost2010Prop38
140
0.0
102
RTVSPost2010PropOp38
 70
     0
102
RTVSPost2010Prop39
140
1.0
102
RTVSPost2010PropOp39
 70
     0
102
RTVSPost2010Prop40
 90
        0
102
RTVSPost2010PropOp40
 70
     0
102
RTVSPost2010Prop41ColorIndex
 90
       18
102
RTVSPost2010Prop41ColorRGB
 90
        0
102
RTVSPost2010PropOp41
 70
     0
102
RTVSPost2010Prop42
 90
       50
102
RTVSPost2010PropOp42
 70
     0
102
RTVSPost2010Prop43
 90
        3
102
RTVSPost2010PropOp43
 70
     0
102
RTVSPost2010Prop44ColorIndex
 90
        5
102
RTVSPost2010Prop44ColorRGB
 90
      255
102
RTVSPost2010PropOp44
 70
     0
102
RTVSPost2010Prop45
280
     0
102
RTVSPost2010PropOp45
 70
     0
102
RTVSPost2010Prop46
 90
       50
102
RTVSPost2010PropOp46
 70
     0
102
RTVSPost2010Prop47
 90
       50
102
RTVSPost2010PropOp47
 70
     0
102
RTVSPost2010Prop48
 90
       50
102
RTVSPost2010PropOp48
 70
     0
102
RTVSPost2010Prop49
280
     0
102
RTVSPost2010PropOp49
 70
     0
102
RTVSPost2010Prop50
 90
       50
102
RTVSPost2010PropOp50
 70
     0
102
RTVSPost2010Prop51ColorIndex
 90
      256
102
RTVSPost2010Prop51ColorRGB
 90
-16777216
102
RTVSPost2010PropOp51
 70
     0
102
RTVSPost2010Prop52
140
1.0
102
RTVSPost2010PropOp52
 70
     0
102
RTVSPost2010Prop53
 90
        2
102
RTVSPost2010PropOp53
 70
     0
102
RTVSPost2010Prop54
  1
strokes_ogs.tif
102
RTVSPost2010PropOp54
 70
     0
102
RTVSPost2010Prop55
280
     0
102
RTVSPost2010PropOp55
 70
     0
102
RTVSPost2010Prop56
140
1.0
102
RTVSPost2010PropOp56
 70
     0
102
RTVSPost2010Prop57
140
1.0
102
RTVSPost2010PropOp57
 70
     0
  0
XRECORD
  5
A53
102
{ACAD_REACTORS
330
A52
102
}
330
A52
100
AcDbXrecord
280
     1
102
RTVSPost2010Prop28
280
     0
102
RTVSPost2010PropOp28
 70
     1
102
RTVSPost2010Prop29
280
     1
102
RTVSPost2010PropOp29
 70
     1
102
RTVSPost2010Prop30
280
     1
102
RTVSPost2010PropOp30
 70
     1
102
RTVSPost2010Prop31
280
     0
102
RTVSPost2010PropOp31
 70
     1
102
RTVSPost2010Prop32
280
     0
102
RTVSPost2010PropOp32
 70
     1
102
RTVSPost2010Prop33
280
     0
102
RTVSPost2010PropOp33
 70
     1
102
RTVSPost2010Prop34
280
     0
102
RTVSPost2010PropOp34
 70
     1
102
RTVSPost2010Prop35
280
     0
102
RTVSPost2010PropOp35
 70
     1
102
RTVSPost2010Prop36
280
     0
102
RTVSPost2010PropOp36
 70
     1
102
RTVSPost2010Prop37
 90
       50
102
RTVSPost2010PropOp37
 70
     1
102
RTVSPost2010Prop38
140
0.0
102
RTVSPost2010PropOp38
 70
     1
102
RTVSPost2010Prop39
140
1.0
102
RTVSPost2010PropOp39
 70
     1
102
RTVSPost2010Prop40
 90
        0
102
RTVSPost2010PropOp40
 70
     1
102
RTVSPost2010Prop41ColorIndex
 90
       18
102
RTVSPost2010Prop41ColorRGB
 90
        0
102
RTVSPost2010PropOp41
 70
     1
102
RTVSPost2010Prop42
 90
       50
102
RTVSPost2010PropOp42
 70
     1
102
RTVSPost2010Prop43
 90
        3
102
RTVSPost2010PropOp43
 70
     1
102
RTVSPost2010Prop44ColorIndex
 90
        5
102
RTVSPost2010Prop44ColorRGB
 90
      255
102
RTVSPost2010PropOp44
 70
     1
102
RTVSPost2010Prop45
280
     0
102
RTVSPost2010PropOp45
 70
     1
102
RTVSPost2010Prop46
 90
       50
102
RTVSPost2010PropOp46
 70
     1
102
RTVSPost2010Prop47
 90
       50
102
RTVSPost2010PropOp47
 70
     1
102
RTVSPost2010Prop48
 90
       50
102
RTVSPost2010PropOp48
 70
     1
102
RTVSPost2010Prop49
280
     0
102
RTVSPost2010PropOp49
 70
     1
102
RTVSPost2010Prop50
 90
       50
102
RTVSPost2010PropOp50
 70
     1
102
RTVSPost2010Prop51ColorIndex
 90
      256
102
RTVSPost2010Prop51ColorRGB
 90
-16777216
102
RTVSPost2010PropOp51
 70
     0
102
RTVSPost2010Prop52
140
1.0
102
RTVSPost2010PropOp52
 70
     0
102
RTVSPost2010Prop53
 90
        2
102
RTVSPost2010PropOp53
 70
     1
102
RTVSPost2010Prop54
  1
strokes_ogs.tif
102
RTVSPost2010PropOp54
 70
     1
102
RTVSPost2010Prop55
280
     0
102
RTVSPost2010PropOp55
 70
     1
102
RTVSPost2010Prop56
140
1.0
102
RTVSPost2010PropOp56
 70
     1
102
RTVSPost2010Prop57
140
1.0
102
RTVSPost2010PropOp57
 70
     1
  0
XRECORD
  5
A69
102
{ACAD_REACTORS
330
A68
102
}
330
A68
100
AcDbXrecord
280
     1
102
RTVSPost2010Prop28
280
     0
102
RTVSPost2010PropOp28
 70
     1
102
RTVSPost2010Prop29
280
     1
102
RTVSPost2010PropOp29
 70
     1
102
RTVSPost2010Prop30
280
     1
102
RTVSPost2010PropOp30
 70
     1
102
RTVSPost2010Prop31
280
     0
102
RTVSPost2010PropOp31
 70
     1
102
RTVSPost2010Prop32
280
     0
102
RTVSPost2010PropOp32
 70
     1
102
RTVSPost2010Prop33
280
     0
102
RTVSPost2010PropOp33
 70
     1
102
RTVSPost2010Prop34
280
     0
102
RTVSPost2010PropOp34
 70
     1
102
RTVSPost2010Prop35
280
     0
102
RTVSPost2010PropOp35
 70
     1
102
RTVSPost2010Prop36
280
     0
102
RTVSPost2010PropOp36
 70
     1
102
RTVSPost2010Prop37
 90
       50
102
RTVSPost2010PropOp37
 70
     1
102
RTVSPost2010Prop38
140
0.0
102
RTVSPost2010PropOp38
 70
     1
102
RTVSPost2010Prop39
140
1.0
102
RTVSPost2010PropOp39
 70
     1
102
RTVSPost2010Prop40
 90
        0
102
RTVSPost2010PropOp40
 70
     1
102
RTVSPost2010Prop41ColorIndex
 90
       18
102
RTVSPost2010Prop41ColorRGB
 90
        0
102
RTVSPost2010PropOp41
 70
     1
102
RTVSPost2010Prop42
 90
       50
102
RTVSPost2010PropOp42
 70
     1
102
RTVSPost2010Prop43
 90
        3
102
RTVSPost2010PropOp43
 70
     1
102
RTVSPost2010Prop44ColorIndex
 90
        5
102
RTVSPost2010Prop44ColorRGB
 90
      255
102
RTVSPost2010PropOp44
 70
     1
102
RTVSPost2010Prop45
280
     0
102
RTVSPost2010PropOp45
 70
     1
102
RTVSPost2010Prop46
 90
       50
102
RTVSPost2010PropOp46
 70
     1
102
RTVSPost2010Prop47
 90
       50
102
RTVSPost2010PropOp47
 70
     1
102
RTVSPost2010Prop48
 90
       50
102
RTVSPost2010PropOp48
 70
     1
102
RTVSPost2010Prop49
280
     0
102
RTVSPost2010PropOp49
 70
     1
102
RTVSPost2010Prop50
 90
       50
102
RTVSPost2010PropOp50
 70
     1
102
RTVSPost2010Prop51ColorIndex
 90
      256
102
RTVSPost2010Prop51ColorRGB
 90
-16777216
102
RTVSPost2010PropOp51
 70
     0
102
RTVSPost2010Prop52
140
1.0
102
RTVSPost2010PropOp52
 70
     0
102
RTVSPost2010Prop53
 90
        2
102
RTVSPost2010PropOp53
 70
     1
102
RTVSPost2010Prop54
  1
strokes_ogs.tif
102
RTVSPost2010PropOp54
 70
     1
102
RTVSPost2010Prop55
280
     0
102
RTVSPost2010PropOp55
 70
     1
102
RTVSPost2010Prop56
140
1.0
102
RTVSPost2010PropOp56
 70
     1
102
RTVSPost2010Prop57
140
1.0
102
RTVSPost2010PropOp57
 70
     1
  0
XRECORD
  5
A67
102
{ACAD_REACTORS
330
A66
102
}
330
A66
100
AcDbXrecord
280
     1
102
RTVSPost2010Prop28
280
     0
102
RTVSPost2010PropOp28
 70
     1
102
RTVSPost2010Prop29
280
     1
102
RTVSPost2010PropOp29
 70
     1
102
RTVSPost2010Prop30
280
     1
102
RTVSPost2010PropOp30
 70
     1
102
RTVSPost2010Prop31
280
     0
102
RTVSPost2010PropOp31
 70
     1
102
RTVSPost2010Prop32
280
     0
102
RTVSPost2010PropOp32
 70
     1
102
RTVSPost2010Prop33
280
     0
102
RTVSPost2010PropOp33
 70
     1
102
RTVSPost2010Prop34
280
     0
102
RTVSPost2010PropOp34
 70
     1
102
RTVSPost2010Prop35
280
     0
102
RTVSPost2010PropOp35
 70
     1
102
RTVSPost2010Prop36
280
     0
102
RTVSPost2010PropOp36
 70
     1
102
RTVSPost2010Prop37
 90
       50
102
RTVSPost2010PropOp37
 70
     1
102
RTVSPost2010Prop38
140
0.0
102
RTVSPost2010PropOp38
 70
     1
102
RTVSPost2010Prop39
140
1.0
102
RTVSPost2010PropOp39
 70
     1
102
RTVSPost2010Prop40
 90
        0
102
RTVSPost2010PropOp40
 70
     1
102
RTVSPost2010Prop41ColorIndex
 90
       18
102
RTVSPost2010Prop41ColorRGB
 90
        0
102
RTVSPost2010PropOp41
 70
     1
102
RTVSPost2010Prop42
 90
       50
102
RTVSPost2010PropOp42
 70
     1
102
RTVSPost2010Prop43
 90
        3
102
RTVSPost2010PropOp43
 70
     1
102
RTVSPost2010Prop44ColorIndex
 90
        5
102
RTVSPost2010Prop44ColorRGB
 90
      255
102
RTVSPost2010PropOp44
 70
     1
102
RTVSPost2010Prop45
280
     0
102
RTVSPost2010PropOp45
 70
     1
102
RTVSPost2010Prop46
 90
       50
102
RTVSPost2010PropOp46
 70
     1
102
RTVSPost2010Prop47
 90
       50
102
RTVSPost2010PropOp47
 70
     1
102
RTVSPost2010Prop48
 90
       50
102
RTVSPost2010PropOp48
 70
     1
102
RTVSPost2010Prop49
280
     0
102
RTVSPost2010PropOp49
 70
     1
102
RTVSPost2010Prop50
 90
       50
102
RTVSPost2010PropOp50
 70
     1
102
RTVSPost2010Prop51ColorIndex
 90
      256
102
RTVSPost2010Prop51ColorRGB
 90
-16777216
102
RTVSPost2010PropOp51
 70
     0
102
RTVSPost2010Prop52
140
1.0
102
RTVSPost2010PropOp52
 70
     0
102
RTVSPost2010Prop53
 90
        2
102
RTVSPost2010PropOp53
 70
     1
102
RTVSPost2010Prop54
  1
strokes_ogs.tif
102
RTVSPost2010PropOp54
 70
     1
102
RTVSPost2010Prop55
280
     0
102
RTVSPost2010PropOp55
 70
     1
102
RTVSPost2010Prop56
140
1.0
102
RTVSPost2010PropOp56
 70
     1
102
RTVSPost2010Prop57
140
1.0
102
RTVSPost2010PropOp57
 70
     1
  0
XRECORD
  5
A61
102
{ACAD_REACTORS
330
A60
102
}
330
A60
100
AcDbXrecord
280
     1
102
RTVSPost2010Prop28
280
     0
102
RTVSPost2010PropOp28
 70
     1
102
RTVSPost2010Prop29
280
     1
102
RTVSPost2010PropOp29
 70
     1
102
RTVSPost2010Prop30
280
     1
102
RTVSPost2010PropOp30
 70
     1
102
RTVSPost2010Prop31
280
     0
102
RTVSPost2010PropOp31
 70
     1
102
RTVSPost2010Prop32
280
     0
102
RTVSPost2010PropOp32
 70
     1
102
RTVSPost2010Prop33
280
     0
102
RTVSPost2010PropOp33
 70
     1
102
RTVSPost2010Prop34
280
     0
102
RTVSPost2010PropOp34
 70
     1
102
RTVSPost2010Prop35
280
     0
102
RTVSPost2010PropOp35
 70
     1
102
RTVSPost2010Prop36
280
     0
102
RTVSPost2010PropOp36
 70
     1
102
RTVSPost2010Prop37
 90
       50
102
RTVSPost2010PropOp37
 70
     1
102
RTVSPost2010Prop38
140
0.0
102
RTVSPost2010PropOp38
 70
     1
102
RTVSPost2010Prop39
140
1.0
102
RTVSPost2010PropOp39
 70
     1
102
RTVSPost2010Prop40
 90
        0
102
RTVSPost2010PropOp40
 70
     1
102
RTVSPost2010Prop41ColorIndex
 90
       18
102
RTVSPost2010Prop41ColorRGB
 90
        0
102
RTVSPost2010PropOp41
 70
     1
102
RTVSPost2010Prop42
 90
       50
102
RTVSPost2010PropOp42
 70
     1
102
RTVSPost2010Prop43
 90
        3
102
RTVSPost2010PropOp43
 70
     1
102
RTVSPost2010Prop44ColorIndex
 90
        5
102
RTVSPost2010Prop44ColorRGB
 90
      255
102
RTVSPost2010PropOp44
 70
     1
102
RTVSPost2010Prop45
280
     0
102
RTVSPost2010PropOp45
 70
     1
102
RTVSPost2010Prop46
 90
       50
102
RTVSPost2010PropOp46
 70
     1
102
RTVSPost2010Prop47
 90
       50
102
RTVSPost2010PropOp47
 70
     1
102
RTVSPost2010Prop48
 90
       50
102
RTVSPost2010PropOp48
 70
     1
102
RTVSPost2010Prop49
280
     0
102
RTVSPost2010PropOp49
 70
     1
102
RTVSPost2010Prop50
 90
       50
102
RTVSPost2010PropOp50
 70
     1
102
RTVSPost2010Prop51ColorIndex
 90
      256
102
RTVSPost2010Prop51ColorRGB
 90
-16777216
102
RTVSPost2010PropOp51
 70
     0
102
RTVSPost2010Prop52
140
1.0
102
RTVSPost2010PropOp52
 70
     0
102
RTVSPost2010Prop53
 90
        2
102
RTVSPost2010PropOp53
 70
     1
102
RTVSPost2010Prop54
  1
strokes_ogs.tif
102
RTVSPost2010PropOp54
 70
     1
102
RTVSPost2010Prop55
280
     0
102
RTVSPost2010PropOp55
 70
     1
102
RTVSPost2010Prop56
140
1.0
102
RTVSPost2010PropOp56
 70
     1
102
RTVSPost2010Prop57
140
1.0
102
RTVSPost2010PropOp57
 70
     1
  0
XRECORD
  5
A63
102
{ACAD_REACTORS
330
A62
102
}
330
A62
100
AcDbXrecord
280
     1
102
RTVSPost2010Prop28
280
     0
102
RTVSPost2010PropOp28
 70
     1
102
RTVSPost2010Prop29
280
     1
102
RTVSPost2010PropOp29
 70
     1
102
RTVSPost2010Prop30
280
     1
102
RTVSPost2010PropOp30
 70
     1
102
RTVSPost2010Prop31
280
     0
102
RTVSPost2010PropOp31
 70
     1
102
RTVSPost2010Prop32
280
     0
102
RTVSPost2010PropOp32
 70
     1
102
RTVSPost2010Prop33
280
     0
102
RTVSPost2010PropOp33
 70
     1
102
RTVSPost2010Prop34
280
     0
102
RTVSPost2010PropOp34
 70
     1
102
RTVSPost2010Prop35
280
     0
102
RTVSPost2010PropOp35
 70
     1
102
RTVSPost2010Prop36
280
     0
102
RTVSPost2010PropOp36
 70
     1
102
RTVSPost2010Prop37
 90
       50
102
RTVSPost2010PropOp37
 70
     1
102
RTVSPost2010Prop38
140
0.0
102
RTVSPost2010PropOp38
 70
     1
102
RTVSPost2010Prop39
140
1.0
102
RTVSPost2010PropOp39
 70
     1
102
RTVSPost2010Prop40
 90
        0
102
RTVSPost2010PropOp40
 70
     1
102
RTVSPost2010Prop41ColorIndex
 90
       18
102
RTVSPost2010Prop41ColorRGB
 90
        0
102
RTVSPost2010PropOp41
 70
     1
102
RTVSPost2010Prop42
 90
       50
102
RTVSPost2010PropOp42
 70
     1
102
RTVSPost2010Prop43
 90
        3
102
RTVSPost2010PropOp43
 70
     1
102
RTVSPost2010Prop44ColorIndex
 90
        5
102
RTVSPost2010Prop44ColorRGB
 90
      255
102
RTVSPost2010PropOp44
 70
     1
102
RTVSPost2010Prop45
280
     0
102
RTVSPost2010PropOp45
 70
     1
102
RTVSPost2010Prop46
 90
       50
102
RTVSPost2010PropOp46
 70
     1
102
RTVSPost2010Prop47
 90
       50
102
RTVSPost2010PropOp47
 70
     1
102
RTVSPost2010Prop48
 90
       50
102
RTVSPost2010PropOp48
 70
     1
102
RTVSPost2010Prop49
280
     0
102
RTVSPost2010PropOp49
 70
     1
102
RTVSPost2010Prop50
 90
       50
102
RTVSPost2010PropOp50
 70
     1
102
RTVSPost2010Prop51ColorIndex
 90
      256
102
RTVSPost2010Prop51ColorRGB
 90
-16777216
102
RTVSPost2010PropOp51
 70
     0
102
RTVSPost2010Prop52
140
1.0
102
RTVSPost2010PropOp52
 70
     0
102
RTVSPost2010Prop53
 90
        2
102
RTVSPost2010PropOp53
 70
     1
102
RTVSPost2010Prop54
  1
strokes_ogs.tif
102
RTVSPost2010PropOp54
 70
     1
102
RTVSPost2010Prop55
280
     0
102
RTVSPost2010PropOp55
 70
     1
102
RTVSPost2010Prop56
140
1.0
102
RTVSPost2010PropOp56
 70
     1
102
RTVSPost2010Prop57
140
1.0
102
RTVSPost2010PropOp57
 70
     1
  0
XRECORD
  5
A59
102
{ACAD_REACTORS
330
A58
102
}
330
A58
100
AcDbXrecord
280
     1
102
RTVSPost2010Prop28
280
     0
102
RTVSPost2010PropOp28
 70
     1
102
RTVSPost2010Prop29
280
     1
102
RTVSPost2010PropOp29
 70
     1
102
RTVSPost2010Prop30
280
     1
102
RTVSPost2010PropOp30
 70
     1
102
RTVSPost2010Prop31
280
     0
102
RTVSPost2010PropOp31
 70
     1
102
RTVSPost2010Prop32
280
     0
102
RTVSPost2010PropOp32
 70
     1
102
RTVSPost2010Prop33
280
     0
102
RTVSPost2010PropOp33
 70
     1
102
RTVSPost2010Prop34
280
     0
102
RTVSPost2010PropOp34
 70
     1
102
RTVSPost2010Prop35
280
     0
102
RTVSPost2010PropOp35
 70
     1
102
RTVSPost2010Prop36
280
     0
102
RTVSPost2010PropOp36
 70
     1
102
RTVSPost2010Prop37
 90
       50
102
RTVSPost2010PropOp37
 70
     1
102
RTVSPost2010Prop38
140
0.0
102
RTVSPost2010PropOp38
 70
     1
102
RTVSPost2010Prop39
140
1.0
102
RTVSPost2010PropOp39
 70
     1
102
RTVSPost2010Prop40
 90
        0
102
RTVSPost2010PropOp40
 70
     1
102
RTVSPost2010Prop41ColorIndex
 90
       18
102
RTVSPost2010Prop41ColorRGB
 90
        0
102
RTVSPost2010PropOp41
 70
     1
102
RTVSPost2010Prop42
 90
       50
102
RTVSPost2010PropOp42
 70
     1
102
RTVSPost2010Prop43
 90
        3
102
RTVSPost2010PropOp43
 70
     1
102
RTVSPost2010Prop44ColorIndex
 90
        5
102
RTVSPost2010Prop44ColorRGB
 90
      255
102
RTVSPost2010PropOp44
 70
     1
102
RTVSPost2010Prop45
280
     0
102
RTVSPost2010PropOp45
 70
     1
102
RTVSPost2010Prop46
 90
       50
102
RTVSPost2010PropOp46
 70
     1
102
RTVSPost2010Prop47
 90
       50
102
RTVSPost2010PropOp47
 70
     1
102
RTVSPost2010Prop48
 90
       50
102
RTVSPost2010PropOp48
 70
     1
102
RTVSPost2010Prop49
280
     0
102
RTVSPost2010PropOp49
 70
     1
102
RTVSPost2010Prop50
 90
       50
102
RTVSPost2010PropOp50
 70
     1
102
RTVSPost2010Prop51ColorIndex
 90
      256
102
RTVSPost2010Prop51ColorRGB
 90
-16777216
102
RTVSPost2010PropOp51
 70
     0
102
RTVSPost2010Prop52
140
1.0
102
RTVSPost2010PropOp52
 70
     0
102
RTVSPost2010Prop53
 90
        2
102
RTVSPost2010PropOp53
 70
     1
102
RTVSPost2010Prop54
  1
strokes_ogs.tif
102
RTVSPost2010PropOp54
 70
     1
102
RTVSPost2010Prop55
280
     0
102
RTVSPost2010PropOp55
 70
     1
102
RTVSPost2010Prop56
140
1.0
102
RTVSPost2010PropOp56
 70
     1
102
RTVSPost2010Prop57
140
1.0
102
RTVSPost2010PropOp57
 70
     1
  0
XRECORD
  5
A4D
102
{ACAD_REACTORS
330
A4C
102
}
330
A4C
100
AcDbXrecord
280
     1
102
RTVSPost2010Prop28
280
     0
102
RTVSPost2010PropOp28
 70
     1
102
RTVSPost2010Prop29
280
     1
102
RTVSPost2010PropOp29
 70
     1
102
RTVSPost2010Prop30
280
     1
102
RTVSPost2010PropOp30
 70
     1
102
RTVSPost2010Prop31
280
     0
102
RTVSPost2010PropOp31
 70
     1
102
RTVSPost2010Prop32
280
     0
102
RTVSPost2010PropOp32
 70
     1
102
RTVSPost2010Prop33
280
     0
102
RTVSPost2010PropOp33
 70
     1
102
RTVSPost2010Prop34
280
     0
102
RTVSPost2010PropOp34
 70
     1
102
RTVSPost2010Prop35
280
     0
102
RTVSPost2010PropOp35
 70
     1
102
RTVSPost2010Prop36
280
     0
102
RTVSPost2010PropOp36
 70
     1
102
RTVSPost2010Prop37
 90
       50
102
RTVSPost2010PropOp37
 70
     1
102
RTVSPost2010Prop38
140
0.0
102
RTVSPost2010PropOp38
 70
     1
102
RTVSPost2010Prop39
140
1.0
102
RTVSPost2010PropOp39
 70
     1
102
RTVSPost2010Prop40
 90
        0
102
RTVSPost2010PropOp40
 70
     1
102
RTVSPost2010Prop41ColorIndex
 90
       18
102
RTVSPost2010Prop41ColorRGB
 90
        0
102
RTVSPost2010PropOp41
 70
     1
102
RTVSPost2010Prop42
 90
       50
102
RTVSPost2010PropOp42
 70
     1
102
RTVSPost2010Prop43
 90
        3
102
RTVSPost2010PropOp43
 70
     1
102
RTVSPost2010Prop44ColorIndex
 90
        5
102
RTVSPost2010Prop44ColorRGB
 90
      255
102
RTVSPost2010PropOp44
 70
     1
102
RTVSPost2010Prop45
280
     0
102
RTVSPost2010PropOp45
 70
     1
102
RTVSPost2010Prop46
 90
       50
102
RTVSPost2010PropOp46
 70
     1
102
RTVSPost2010Prop47
 90
       50
102
RTVSPost2010PropOp47
 70
     1
102
RTVSPost2010Prop48
 90
       50
102
RTVSPost2010PropOp48
 70
     1
102
RTVSPost2010Prop49
280
     0
102
RTVSPost2010PropOp49
 70
     1
102
RTVSPost2010Prop50
 90
       50
102
RTVSPost2010PropOp50
 70
     1
102
RTVSPost2010Prop51ColorIndex
 90
      256
102
RTVSPost2010Prop51ColorRGB
 90
-16777216
102
RTVSPost2010PropOp51
 70
     0
102
RTVSPost2010Prop52
140
1.0
102
RTVSPost2010PropOp52
 70
     0
102
RTVSPost2010Prop53
 90
        2
102
RTVSPost2010PropOp53
 70
     1
102
RTVSPost2010Prop54
  1
strokes_ogs.tif
102
RTVSPost2010PropOp54
 70
     1
102
RTVSPost2010Prop55
280
     0
102
RTVSPost2010PropOp55
 70
     1
102
RTVSPost2010Prop56
140
1.0
102
RTVSPost2010PropOp56
 70
     1
102
RTVSPost2010Prop57
140
1.0
102
RTVSPost2010PropOp57
 70
     1
  0
XRECORD
  5
A65
102
{ACAD_REACTORS
330
A64
102
}
330
A64
100
AcDbXrecord
280
     1
102
RTVSPost2010Prop28
280
     0
102
RTVSPost2010PropOp28
 70
     1
102
RTVSPost2010Prop29
280
     1
102
RTVSPost2010PropOp29
 70
     1
102
RTVSPost2010Prop30
280
     1
102
RTVSPost2010PropOp30
 70
     1
102
RTVSPost2010Prop31
280
     0
102
RTVSPost2010PropOp31
 70
     1
102
RTVSPost2010Prop32
280
     0
102
RTVSPost2010PropOp32
 70
     1
102
RTVSPost2010Prop33
280
     0
102
RTVSPost2010PropOp33
 70
     1
102
RTVSPost2010Prop34
280
     0
102
RTVSPost2010PropOp34
 70
     1
102
RTVSPost2010Prop35
280
     0
102
RTVSPost2010PropOp35
 70
     1
102
RTVSPost2010Prop36
280
     0
102
RTVSPost2010PropOp36
 70
     1
102
RTVSPost2010Prop37
 90
       50
102
RTVSPost2010PropOp37
 70
     1
102
RTVSPost2010Prop38
140
0.0
102
RTVSPost2010PropOp38
 70
     1
102
RTVSPost2010Prop39
140
1.0
102
RTVSPost2010PropOp39
 70
     1
102
RTVSPost2010Prop40
 90
        0
102
RTVSPost2010PropOp40
 70
     1
102
RTVSPost2010Prop41ColorIndex
 90
       18
102
RTVSPost2010Prop41ColorRGB
 90
        0
102
RTVSPost2010PropOp41
 70
     1
102
RTVSPost2010Prop42
 90
       50
102
RTVSPost2010PropOp42
 70
     1
102
RTVSPost2010Prop43
 90
        3
102
RTVSPost2010PropOp43
 70
     1
102
RTVSPost2010Prop44ColorIndex
 90
        5
102
RTVSPost2010Prop44ColorRGB
 90
      255
102
RTVSPost2010PropOp44
 70
     1
102
RTVSPost2010Prop45
280
     0
102
RTVSPost2010PropOp45
 70
     1
102
RTVSPost2010Prop46
 90
       50
102
RTVSPost2010PropOp46
 70
     1
102
RTVSPost2010Prop47
 90
       50
102
RTVSPost2010PropOp47
 70
     1
102
RTVSPost2010Prop48
 90
       50
102
RTVSPost2010PropOp48
 70
     1
102
RTVSPost2010Prop49
280
     0
102
RTVSPost2010PropOp49
 70
     1
102
RTVSPost2010Prop50
 90
       50
102
RTVSPost2010PropOp50
 70
     1
102
RTVSPost2010Prop51ColorIndex
 90
      256
102
RTVSPost2010Prop51ColorRGB
 90
-16777216
102
RTVSPost2010PropOp51
 70
     0
102
RTVSPost2010Prop52
140
1.0
102
RTVSPost2010PropOp52
 70
     0
102
RTVSPost2010Prop53
 90
        2
102
RTVSPost2010PropOp53
 70
     1
102
RTVSPost2010Prop54
  1
strokes_ogs.tif
102
RTVSPost2010PropOp54
 70
     1
102
RTVSPost2010Prop55
280
     0
102
RTVSPost2010PropOp55
 70
     1
102
RTVSPost2010Prop56
140
1.0
102
RTVSPost2010PropOp56
 70
     1
102
RTVSPost2010Prop57
140
1.0
102
RTVSPost2010PropOp57
 70
     1
  0
ENDSEC
  0
EOF
